<?xml version="1.0" standalone="no"?>
<!DOCTYPE svg PUBLIC "-//W3C//DTD SVG 1.1//EN" "http://www.w3.org/Graphics/SVG/1.1/DTD/svg11.dtd" >
<svg xmlns="http://www.w3.org/2000/svg" xmlns:xlink="http://www.w3.org/1999/xlink" version="1.1">
<metadata>
Created by FontForge 20161013 at Wed Aug  9 08:38:26 2017
 By ,,,
</metadata>
<defs>
<font id="DFHeiStd-W9-BIG" horiz-adv-x="1000" vert-adv-y="1000" >
  <font-face 
    font-family="DFHeiStd-W9-BIG"
    font-weight="400"
    font-stretch="normal"
    units-per-em="1000"
    panose-1="2 0 5 3 0 0 0 0 0 0"
    ascent="800"
    descent="-200"
    x-height="455"
    cap-height="731"
    bbox="0 -140 1000 860"
    underline-thickness="50"
    underline-position="-200"
    unicode-range="U+0021-2FA1B"
  />
<missing-glyph 
 />
    <glyph glyph-name=".notdef" 
 />
    <glyph glyph-name=".null" horiz-adv-x="0" vert-adv-y="0" 
 />
    <glyph glyph-name="nonmarkingreturn" horiz-adv-x="333" 
 />
    <glyph glyph-name="uni00A0" unicode="&#xa0;" horiz-adv-x="333" 
 />
    <glyph glyph-name="uni00A0" unicode=" " horiz-adv-x="333" 
 />
    <glyph glyph-name="exclam" unicode="!" horiz-adv-x="333" 
d="M236 669l-20 -496h-99l-20 496h139zM233 -18h-133v133h133v-133z" />
    <glyph glyph-name="quotedbl" unicode="&#x22;" horiz-adv-x="375" 
d="M315 669l-12 -227h-77l-13 227h102zM162 669l-12 -227h-77l-13 227h102z" />
    <glyph glyph-name="numbersign" unicode="#" horiz-adv-x="610" 
d="M593 522l-15 -99h-94l-26 -190h105l-15 -99h-104l-19 -135h-110l18 135h-112l-19 -135h-110l19 135h-94l15 99h94l26 190h-105l15 99h103l21 135h109l-18 -135h112l19 135h110l-19 -135h94zM374 423h-112l-27 -190h113z" />
    <glyph glyph-name="dollar" unicode="$" horiz-adv-x="610" 
d="M554 186q0 -174 -198 -199v-52h-97v49q-101 9 -152 76q-49 61 -51 167h132q0 -53 14 -79q17 -34 57 -43v179q-89 31 -127 63q-60 48 -60 126q0 79 55 133q52 50 132 62v50h97v-50q184 -26 188 -217h-131q-3 76 -57 95v-165q101 -40 135 -64q63 -48 63 -131zM259 417v127
q-55 -21 -55 -64q0 -41 55 -63zM422 184q0 44 -66 68v-145q66 18 66 77z" />
    <glyph glyph-name="percent" unicode="%" horiz-adv-x="854" 
d="M814 156q0 -76 -43 -125q-44 -49 -120 -49q-77 0 -120 49q-43 47 -43 125q0 76 42 126q42 48 121 48q76 0 121 -50q42 -48 42 -124zM717 156q0 84 -66 84t-66 -84t66 -84t66 84zM783 600l-642 -619l-70 71l642 618zM366 497q0 -76 -43 -125t-120 -49q-78 0 -120 49
q-43 47 -43 125q0 77 42 125q43 49 121 49q76 0 121 -50q42 -48 42 -124zM269 497q0 84 -65 84q-66 0 -66 -84t66 -84q65 0 65 84z" />
    <glyph glyph-name="ampersand" unicode="&#x26;" horiz-adv-x="711" 
d="M696 -6h-148l-62 65q-90 -77 -193 -77q-108 0 -176 50q-77 55 -77 159q0 66 41 117q29 34 97 83q-68 78 -68 140q0 64 51 103q46 35 114 35q65 0 114 -34q53 -38 53 -101q0 -79 -101 -160l131 -140q23 74 23 208h109q-3 -181 -52 -294zM332 530q0 37 -54 37
q-56 0 -56 -37q0 -24 47 -77q63 43 63 77zM413 137l-162 175q-101 -62 -101 -116t42 -84q38 -27 95 -27q67 0 126 52z" />
    <glyph glyph-name="quotesingle" unicode="'" horiz-adv-x="222" 
d="M162 669l-12 -227h-77l-13 227h102z" />
    <glyph glyph-name="parenleft" unicode="(" horiz-adv-x="333" 
d="M285 -102h-120q-54 92 -85 209q-32 113 -32 219q0 105 32 218q32 118 85 209h120q-123 -252 -123 -428t123 -427z" />
    <glyph glyph-name="parenright" unicode=")" horiz-adv-x="333" 
d="M285 326q0 -100 -32 -219q-33 -117 -85 -209h-120q123 251 123 427t-123 428h120q51 -91 85 -209q32 -119 32 -218z" />
    <glyph glyph-name="asterisk" unicode="*" horiz-adv-x="514" 
d="M484 380l-54 -92l-133 91l11 -149h-107l12 148l-130 -94l-53 96l142 71l-142 70l51 93l132 -91l-12 146h107l-11 -146l135 90l49 -96l-143 -66z" />
    <glyph glyph-name="plus" unicode="+" horiz-adv-x="554" 
d="M514 163h-174v-174h-126v174h-174v126h174v174h126v-174h174v-126z" />
    <glyph glyph-name="comma" unicode="," horiz-adv-x="233" 
d="M197 43q0 -109 -123 -173l-38 65q44 18 81 65h-73v143h153v-100z" />
    <glyph glyph-name="hyphen" unicode="-" horiz-adv-x="333" 
d="M292 163h-251v126h251v-126z" />
    <glyph glyph-name="period" unicode="." horiz-adv-x="233" 
d="M193 -10h-153v153h153v-153z" />
    <glyph glyph-name="slash" unicode="/" horiz-adv-x="278" 
d="M269 720l-161 -821l-99 24l159 816z" />
    <glyph glyph-name="zero" unicode="0" horiz-adv-x="610" 
d="M555 323q0 -144 -51 -231q-63 -111 -199 -111t-199 111q-51 87 -51 231t50 232q63 114 200 114q135 0 200 -114q50 -91 50 -232zM429 323q0 233 -124 233q-123 0 -123 -233q0 -228 123 -228q124 0 124 228z" />
    <glyph glyph-name="one" unicode="1" horiz-adv-x="610" 
d="M420 -4h-124v480q-44 -30 -106 -52v132q88 40 146 102h84v-662z" />
    <glyph glyph-name="two" unicode="2" horiz-adv-x="610" 
d="M530 -4h-450v104q316 278 316 377q0 79 -94 79q-52 0 -72 -31q-16 -26 -13 -86h-130q3 230 217 230q91 0 153 -47q66 -52 66 -141q0 -131 -257 -368h264v-117z" />
    <glyph glyph-name="three" unicode="3" horiz-adv-x="610" 
d="M549 188q0 -97 -77 -154q-72 -52 -171 -52q-235 0 -240 231h130q1 -62 27 -89q24 -27 83 -27q50 0 82 25q37 28 37 73t-41 68q-35 19 -85 19q-12 0 -56 -6v124q33 -4 65 -4q46 0 75 20q34 23 34 63q0 38 -34 60q-31 17 -74 17q-58 0 -81 -26q-20 -22 -25 -80h-127
q5 219 225 219q100 0 167 -44q76 -52 76 -147q0 -84 -72 -137q82 -59 82 -153z" />
    <glyph glyph-name="four" unicode="4" horiz-adv-x="610" 
d="M560 134h-101v-137h-122v137h-287v83l302 441h107v-414h101v-110zM337 244v186l-129 -186h129z" />
    <glyph glyph-name="five" unicode="5" horiz-adv-x="610" 
d="M539 222q0 -104 -62 -171q-65 -69 -170 -69q-227 0 -236 219h126q6 -54 29 -79q22 -25 75 -25q51 0 82 38q28 34 28 87q0 51 -28 82q-29 31 -79 31q-80 0 -104 -89h-116l19 411h405v-112h-288l-4 -116q48 24 101 24q99 0 161 -65q61 -67 61 -166z" />
    <glyph glyph-name="six" unicode="6" horiz-adv-x="610" 
d="M548 217q0 -102 -62 -169q-63 -66 -167 -66q-134 0 -200 96q-57 81 -57 217q0 374 259 374q99 0 160 -55q56 -55 59 -143h-126q-8 44 -25 63q-21 23 -66 23q-100 0 -126 -140q59 34 125 34q103 0 165 -65q61 -67 61 -169zM421 214q0 52 -24 86q-28 37 -76 37
q-56 0 -89 -36q-34 -35 -34 -91q0 -45 34 -80q32 -35 77 -35q51 0 81 33q31 34 31 86z" />
    <glyph glyph-name="seven" unicode="7" horiz-adv-x="610" 
d="M534 575l-253 -578h-139l247 547h-313v114h458v-83z" />
    <glyph glyph-name="eight" unicode="8" horiz-adv-x="610" 
d="M554 192q0 -101 -76 -159q-69 -51 -174 -51q-103 0 -173 52q-75 57 -75 158q0 90 80 145q-70 51 -70 135q0 95 74 148q67 49 164 49q98 0 165 -48q74 -54 74 -149q0 -84 -69 -135q80 -54 80 -145zM415 472q0 41 -35 64q-32 19 -76 19q-46 0 -76 -19q-34 -22 -34 -64
q0 -79 110 -79q111 0 111 79zM425 192q0 88 -121 88q-120 0 -120 -88q0 -48 36 -73q32 -23 84 -23t84 23q37 25 37 73z" />
    <glyph glyph-name="nine" unicode="9" horiz-adv-x="610" 
d="M549 340q0 -358 -269 -358q-210 0 -219 208h128q0 -52 25 -74q22 -21 81 -21q98 0 123 161q-62 -37 -133 -37q-100 0 -161 61q-63 62 -63 159q0 103 65 167q64 63 169 63q254 0 254 -329zM414 443q0 47 -36 80t-83 33q-51 0 -79 -34q-28 -35 -28 -87q0 -46 29 -74
q28 -29 74 -29q50 0 86 32q37 32 37 79z" />
    <glyph glyph-name="colon" unicode=":" horiz-adv-x="233" 
d="M193 302h-153v153h153v-153zM193 -10h-153v153h153v-153z" />
    <glyph glyph-name="semicolon" unicode=";" horiz-adv-x="233" 
d="M197 302h-153v153h153v-153zM197 43q0 -109 -123 -173l-38 65q44 18 81 65h-73v143h153v-100z" />
    <glyph glyph-name="less" unicode="&#x3c;" horiz-adv-x="554" 
d="M476 -21l-398 200v92l398 204v-130l-232 -119l232 -118v-129z" />
    <glyph glyph-name="equal" unicode="=" horiz-adv-x="554" 
d="M514 257h-474v126h474v-126zM514 67h-474v126h474v-126z" />
    <glyph glyph-name="greater" unicode="&#x3e;" horiz-adv-x="554" 
d="M476 179l-398 -200v129l232 118l-232 119v130l398 -204v-92z" />
    <glyph glyph-name="question" unicode="?" horiz-adv-x="502" 
d="M442 490q0 -101 -93 -182q-9 -8 -28.5 -25t-29.5 -25q-32 -32 -32 -65v-20h-116v20q0 57 29 101q19 29 64 68q50 44 60 55q30 35 30 73q0 66 -103 66q-98 0 -163 -34v125q67 23 163 23q92 0 155 -46q64 -52 64 -134zM268 -18h-133v133h133v-133z" />
    <glyph glyph-name="at" unicode="@" horiz-adv-x="746" 
d="M706 180q-48 -97 -130 -148q-84 -51 -188 -51q-169 0 -258 88q-90 87 -90 255q0 143 101 244t244 101q131 0 222 -79q94 -85 94 -212q0 -115 -77 -198h82zM603 381q0 55 -30 105q-72 -220 -77 -235q-7 -20 -7 -26q0 -7 4 -7q47 0 81 59q29 52 29 104zM437 392
q0 16 -10 34q-11 16 -27 16q-49 0 -83 -61q-29 -49 -29 -106q0 -63 32 -63q45 0 84 69q33 60 33 111zM583 152q-60 -32 -104 -32q-46 0 -72 32q-45 -30 -100 -30q-124 0 -124 148q0 97 58 174q63 87 157 87q47 0 87 -34l5 15h63q-66 68 -166 68q-108 0 -179 -76
q-71 -74 -71 -186q0 -248 251 -248q122 0 195 82z" />
    <glyph glyph-name="A" unicode="A" horiz-adv-x="718" 
d="M703 -5h-136l-73 161h-271l-72 -161h-136l292 661h102zM443 273l-85 199l-84 -199h169z" />
    <glyph glyph-name="B" unicode="B" horiz-adv-x="588" 
d="M548 191q0 -93 -71 -147q-63 -48 -160 -48h-257v661h244q90 0 152 -47q67 -52 67 -139q0 -77 -60 -126q85 -55 85 -154zM392 466q0 75 -105 75h-103v-147h105q103 0 103 72zM417 197q0 53 -55 71q-35 11 -105 11h-73v-167h107q58 0 88 15q38 18 38 70z" />
    <glyph glyph-name="C" unicode="C" horiz-adv-x="630" 
d="M600 215q-30 -233 -255 -233q-152 0 -231 100q-74 89 -74 242q0 148 75 243q81 102 230 102q108 0 174 -58q68 -62 71 -171h-129q-9 57 -35 85q-26 26 -81 26q-89 0 -134 -72q-39 -60 -39 -155q0 -98 38 -155q45 -70 135 -70q101 0 126 116h129z" />
    <glyph glyph-name="D" unicode="D" horiz-adv-x="666" 
d="M626 325q0 -168 -102 -252q-93 -77 -268 -77h-196v661h194q167 0 266 -81q106 -89 106 -251zM492 325q0 216 -248 216h-56v-429h95q209 0 209 213z" />
    <glyph glyph-name="E" unicode="E" horiz-adv-x="621" 
d="M581 -4h-521v661h508v-118h-383v-144h371v-118h-371v-163h396v-118z" />
    <glyph glyph-name="F" unicode="F" horiz-adv-x="607" 
d="M567 539h-383v-144h371v-118h-371v-281h-124v661h507v-118z" />
    <glyph glyph-name="G" unicode="G" horiz-adv-x="635" 
d="M595 36q-101 -54 -249 -54t-230 102q-76 92 -76 242q0 147 74 240q81 104 227 104q115 0 181 -60q65 -59 71 -177h-129q-6 60 -34 91q-31 28 -89 28q-84 0 -130 -73q-39 -63 -39 -153q0 -227 199 -227q52 0 97 17v129h-158v117h285v-326z" />
    <glyph glyph-name="H" unicode="H" horiz-adv-x="643" 
d="M583 -4h-127v282h-270v-282h-126v661h126v-261h270v261h127v-661z" />
    <glyph glyph-name="I" unicode="I" horiz-adv-x="333" 
d="M230 -4h-127v661h127v-661z" />
    <glyph glyph-name="J" unicode="J" horiz-adv-x="485" 
d="M425 224q0 -241 -212 -241q-97 0 -146 70q-44 59 -47 161h128q0 -53 13 -79q16 -34 61 -34q76 0 76 115v440h127v-432z" />
    <glyph glyph-name="K" unicode="K" horiz-adv-x="610" 
d="M590 -4h-168l-240 282v-282h-122v661h122v-214l221 214h170l-306 -290z" />
    <glyph glyph-name="L" unicode="L" horiz-adv-x="510" 
d="M490 -4h-430v661h125v-542h305v-119z" />
    <glyph glyph-name="M" unicode="M" horiz-adv-x="748" 
d="M688 -4h-117v357l-146 -357h-101l-146 357v-357h-118v661h112l202 -489l203 489h111v-661z" />
    <glyph glyph-name="N" unicode="N" horiz-adv-x="658" 
d="M598 -4h-123l-287 442v-442h-128v661h126l285 -439v439h127v-661z" />
    <glyph glyph-name="O" unicode="O" horiz-adv-x="722" 
d="M682 324q0 -151 -82 -245q-87 -97 -239 -97q-154 0 -239 98q-82 91 -82 244q0 152 81 247q87 99 240 99q151 0 239 -100q82 -94 82 -246zM549 324q0 95 -44 159q-51 69 -144 69q-95 0 -144 -69q-44 -60 -44 -159q0 -96 45 -156q49 -68 143 -68q93 0 143 68q45 60 45 156z
" />
    <glyph glyph-name="P" unicode="P" horiz-adv-x="586" 
d="M546 439q0 -227 -298 -227h-62v-216h-126v661h184q302 0 302 -218zM416 437q0 51 -41 78q-36 24 -92 24h-97v-209h97q133 0 133 107z" />
    <glyph glyph-name="Q" unicode="Q" horiz-adv-x="730" 
d="M710 -5l-235 4q-21 0 -57 -9q-42 -8 -57 -8q-154 0 -239 97q-82 92 -82 245q0 154 81 247q84 99 240 99q153 0 240 -99q82 -96 82 -247q0 -123 -57 -210l84 1v-120zM550 324q0 98 -45 159q-51 69 -144 69t-144 -69q-44 -62 -44 -159q0 -96 45 -156q50 -68 143 -68t144 67
q45 60 45 157z" />
    <glyph glyph-name="R" unicode="R" horiz-adv-x="632" 
d="M612 -4h-171q-21 30 -33 108l-15 117q-6 26 -21 35q-12 4 -43 4h-145v-264h-124v661h248q105 0 167 -47q68 -53 68 -155q0 -83 -74 -134q44 -35 56 -105q6 -53 16 -124q4 -35 71 -96zM413 456q0 83 -113 83h-116v-163h100q52 0 85 17q44 21 44 63z" />
    <glyph glyph-name="S" unicode="S" horiz-adv-x="537" 
d="M517 186q0 -110 -81 -161q-69 -43 -182 -43q-114 0 -174 66q-59 63 -60 179h131q2 -71 28 -99q25 -28 92 -28q46 0 78 19q37 23 37 64q0 44 -57 65q-65 20 -117 38q-176 61 -176 186q0 92 72 147q65 51 160 51q107 0 171 -53q65 -56 68 -167h-130q-5 102 -103 102
q-40 0 -71 -17q-35 -20 -35 -56q0 -35 42 -57q11 -5 73 -28q79 -30 81 -30q51 -21 75 -36q78 -52 78 -142z" />
    <glyph glyph-name="T" unicode="T" horiz-adv-x="581" 
d="M561 539h-207v-543h-126v543h-208v118h541v-118z" />
    <glyph glyph-name="U" unicode="U" horiz-adv-x="649" 
d="M589 239q0 -119 -71 -187q-72 -69 -193 -69q-125 0 -194 68q-71 67 -71 188v417h126v-423q0 -63 38 -97q36 -35 101 -35q63 0 101 35q37 37 37 97v423h126v-417z" />
    <glyph glyph-name="V" unicode="V" horiz-adv-x="664" 
d="M649 657l-259 -661h-116l-259 661h138l179 -468l179 468h138z" />
    <glyph glyph-name="W" unicode="W" horiz-adv-x="855" 
d="M840 657l-168 -661h-111l-134 446l-134 -446h-109l-169 661h124l106 -432l128 432h108l129 -432l106 432h124z" />
    <glyph glyph-name="X" unicode="X" horiz-adv-x="711" 
d="M696 -4h-157l-184 254l-183 -254h-157l262 345l-239 316h158l159 -221l159 221h157l-238 -316z" />
    <glyph glyph-name="Y" unicode="Y" horiz-adv-x="700" 
d="M685 657l-271 -382v-279h-129v279l-270 382h155l181 -263l180 263h154z" />
    <glyph glyph-name="Z" unicode="Z" horiz-adv-x="540" 
d="M510 -4h-480v92l309 451h-303v118h472v-92l-310 -451h312v-118z" />
    <glyph glyph-name="bracketleft" unicode="[" horiz-adv-x="333" 
d="M286 -90h-239v855h239v-120h-127v-616h127v-119z" />
    <glyph glyph-name="backslash" unicode="\" horiz-adv-x="278" 
d="M269 -77l-99 -24l-161 821l101 19z" />
    <glyph glyph-name="bracketright" unicode="]" horiz-adv-x="333" 
d="M286 -90h-239v119h127v616h-127v120h239v-855z" />
    <glyph glyph-name="asciicircum" unicode="^" horiz-adv-x="500" 
d="M475 486h-123l-102 123l-105 -123h-120l153 183h144z" />
    <glyph glyph-name="underscore" unicode="_" horiz-adv-x="500" 
d="M500 -140h-500v125h500v-125z" />
    <glyph glyph-name="grave" unicode="`" horiz-adv-x="333" 
d="M297 549l-34 -55l-227 91l59 86z" />
    <glyph glyph-name="a" unicode="a" horiz-adv-x="473" 
d="M433 -6h-125v29q-40 -40 -105 -40q-74 0 -122 39q-51 42 -51 113q0 91 77 132q60 33 158 33h38q-2 61 -66 61q-63 0 -72 -55h-122q9 80 60 122t135 42q83 0 132 -40q51 -44 51 -126v-185q0 -53 12 -125zM304 198h-38q-116 0 -116 -58q0 -23 19 -36q17 -13 43 -13
q86 0 92 107z" />
    <glyph glyph-name="b" unicode="b" horiz-adv-x="526" 
d="M496 222q0 -103 -50 -168q-56 -71 -159 -71q-85 0 -122 49q0 -3 -0.5 -15t-0.5 -22h-124q13 112 13 129v532h119v-215q52 29 112 29q102 0 161 -76q51 -69 51 -172zM373 225q0 51 -22 90q-27 44 -75 44q-53 0 -80 -41q-24 -36 -24 -90q0 -134 111 -134q47 0 70 44
q20 37 20 87z" />
    <glyph glyph-name="c" unicode="c" horiz-adv-x="478" 
d="M448 183q-3 -98 -54 -149q-54 -52 -148 -52q-105 0 -162 73q-54 66 -54 171t56 171q60 72 164 72q91 0 142 -53q52 -54 55 -145h-120q-6 50 -23 68q-19 19 -63 19q-43 0 -67 -45q-21 -39 -21 -86q0 -48 21 -87q24 -47 67 -47q47 0 65 21q14 17 19 69h123z" />
    <glyph glyph-name="d" unicode="d" horiz-adv-x="523" 
d="M483 -7h-122l-1 36q-42 -47 -121 -47q-103 0 -158 73q-51 66 -51 169q0 102 53 170q58 76 159 76q58 0 112 -30v215h119v-532q0 -27 10 -130zM354 231q0 53 -25 89q-29 39 -81 39q-49 0 -73 -42q-22 -35 -22 -88q0 -137 87 -137q114 0 114 139z" />
    <glyph glyph-name="e" unicode="e" horiz-adv-x="510" 
d="M480 151q-13 -78 -74 -123q-61 -46 -145 -46q-108 0 -171 69q-60 66 -60 174q0 103 59 171q64 73 165 73q110 0 171 -73q54 -68 54 -179v-14h-334q3 -51 36 -81q31 -32 85 -32q68 0 92 61h122zM346 305q-26 56 -92 56q-63 0 -90 -56h182z" />
    <glyph glyph-name="f" unicode="f" horiz-adv-x="361" 
d="M331 546q-24 0 -39 1h-26q-20 -1 -26 -7t-6 -25v-56h94v-111h-94v-352h-117v352h-87v111h87v62q0 136 126 136h88v-111z" />
    <glyph glyph-name="g" unicode="g" horiz-adv-x="521" 
d="M481 456q-7 -94 -7 -125v-197q0 -98 -14 -138q-23 -61 -83 -94q-55 -30 -125 -30q-194 0 -203 148h116q9 -41 89 -41q39 0 68 23q29 24 33 62q-53 -35 -107 -35q-99 0 -158 58q-60 57 -60 154q0 103 56 165q57 63 160 63q66 0 111 -45l1 32h123zM355 248q0 48 -27 81
q-29 32 -76 32q-50 0 -75 -33q-26 -32 -26 -82q0 -48 27 -78q25 -29 75 -29q102 0 102 109z" />
    <glyph glyph-name="h" unicode="h" horiz-adv-x="475" 
d="M435 -5h-120v290q0 74 -74 74q-39 0 -61 -31q-21 -30 -21 -72v-261h-119v661h119v-208q43 24 93 24q91 0 140 -58q43 -55 43 -146v-273z" />
    <glyph glyph-name="i" unicode="i" horiz-adv-x="333" 
d="M227 549h-120v120h120v-120zM227 -4h-120v473h120v-473z" />
    <glyph glyph-name="j" unicode="j" horiz-adv-x="246" 
d="M206 548h-120v121h120v-121zM206 24q0 -140 -130 -140h-71v108h54q27 0 27 28v449h120v-445z" />
    <glyph glyph-name="k" unicode="k" horiz-adv-x="494" 
d="M489 -4h-160l-170 169v-169h-119v661h119v-327l136 129h174l-231 -206z" />
    <glyph glyph-name="l" unicode="l" horiz-adv-x="333" 
d="M227 -5h-120v662h120v-662z" />
    <glyph glyph-name="m" unicode="m" horiz-adv-x="725" 
d="M685 -5h-114v295q0 71 -72 71q-74 0 -74 -95v-271h-115v298q0 68 -71 68q-38 0 -58 -29q-18 -26 -18 -66v-271h-114v339q0 38 -9 125h117l2 -26q32 37 95 37q74 0 124 -54q56 54 134 54q85 0 132 -56q41 -52 41 -137v-282z" />
    <glyph glyph-name="n" unicode="n" horiz-adv-x="492" 
d="M452 -4h-120v258q0 106 -76 106q-84 0 -84 -95v-269h-119v338q0 20 -13 124h123l2 -29q35 40 104 40q87 0 136 -52q47 -53 47 -140v-281z" />
    <glyph glyph-name="o" unicode="o" horiz-adv-x="528" 
d="M498 225q0 -104 -64 -174q-64 -69 -170 -69q-108 0 -171 70q-63 66 -63 173t64 175q63 69 170 69q105 0 171 -71q63 -69 63 -173zM375 225q0 53 -28 92q-31 42 -83 42q-53 0 -82 -39t-29 -95t27 -92q29 -41 84 -41q52 0 83 41q28 37 28 92z" />
    <glyph glyph-name="p" unicode="p" horiz-adv-x="523" 
d="M493 223q0 -101 -51 -167q-56 -74 -157 -74q-64 0 -115 30v-141h-118v459q0 19 -12 127h121l3 -35q41 47 118 47q99 0 158 -76q53 -70 53 -170zM370 229q0 50 -22 88q-27 42 -75 42q-53 0 -80 -39q-23 -32 -23 -89q0 -139 110 -139q90 0 90 137z" />
    <glyph glyph-name="q" unicode="q" horiz-adv-x="521" 
d="M481 457q-11 -106 -11 -128v-458h-117v141q-55 -30 -116 -30q-100 0 -157 73q-50 65 -50 167t52 170q57 77 158 77q72 0 118 -45l3 33h120zM353 230q0 54 -24 89q-29 40 -80 40q-49 0 -75 -44q-21 -37 -21 -91q0 -132 89 -132q111 0 111 138z" />
    <glyph glyph-name="r" unicode="r" horiz-adv-x="312" 
d="M297 347q-46 13 -65 13q-32 0 -49 -27q-16 -23 -16 -57v-280h-115v337q0 35 -12 125h119v-30q35 41 78 41q23 0 60 -10v-112z" />
    <glyph glyph-name="s" unicode="s" horiz-adv-x="442" 
d="M422 146q0 -85 -64 -128q-56 -36 -145 -36q-187 0 -193 178h119q2 -40 24 -55q17 -13 61 -13q75 0 75 48q0 19 -56 36q-12 3 -36.5 9t-36.5 9q-135 36 -135 128q0 75 58 114q48 33 128 33q185 0 188 -160h-119q-6 50 -73 50q-60 0 -60 -34q0 -13 41 -23q12 -3 36.5 -8.5
t36.5 -8.5q151 -45 151 -139z" />
    <glyph glyph-name="t" unicode="t" horiz-adv-x="363" 
d="M343 347h-109v-215q0 -25 25 -25h76v-111h-86q-133 0 -133 132v219h-101v112h101v84l118 57v-141h109v-112z" />
    <glyph glyph-name="u" unicode="u" horiz-adv-x="493" 
d="M453 -8h-126l-1 30q-42 -40 -104 -40q-91 0 -138 53q-44 48 -44 140v280h120v-296q0 -68 74 -68q40 0 64 27q23 28 23 68v269h119v-338q0 -43 13 -125z" />
    <glyph glyph-name="v" unicode="v" horiz-adv-x="528" 
d="M518 455l-199 -460h-111l-198 460h131l123 -295l121 295h133z" />
    <glyph glyph-name="w" unicode="w" horiz-adv-x="743" 
d="M733 455l-168 -460h-103l-91 275l-90 -275h-103l-168 460h121l96 -274l90 274h109l90 -274l96 274h121z" />
    <glyph glyph-name="x" unicode="x" horiz-adv-x="584" 
d="M574 -5h-155l-127 157l-128 -157h-154l205 241l-187 219h153l111 -133l110 133h152l-186 -219z" />
    <glyph glyph-name="y" unicode="y" horiz-adv-x="527" 
d="M517 455l-253 -583h-130l65 143l-189 440h134l120 -296l124 296h129z" />
    <glyph glyph-name="z" unicode="z" horiz-adv-x="398" 
d="M383 -5h-368v84l201 267h-201v109h368v-80l-203 -270h203v-110z" />
    <glyph glyph-name="braceleft" unicode="{" horiz-adv-x="333" 
d="M267 -102h-63q-50 0 -74 44q-20 33 -20 85v173q0 36 -8 52q-9 14 -36 14v119q28 0 36 14t8 52v173q0 52 20 85q24 44 74 44h63v-123q-26 0 -34 -4q-11 -6 -11 -32v-155q0 -71 -27 -113q27 -44 27 -114v-155q0 -27 11 -32q5 -4 34 -4v-123z" />
    <glyph glyph-name="bar" unicode="|" horiz-adv-x="246" 
d="M186 -17h-126v686h126v-686z" />
    <glyph glyph-name="braceright" unicode="}" horiz-adv-x="333" 
d="M267 266q-28 0 -36 -14q-8 -13 -8 -52v-173q0 -50 -20 -85q-26 -44 -74 -44h-63v123q29 0 34 4q11 6 11 32v155q0 70 27 114q-27 42 -27 113v155q0 26 -11 32q-8 4 -34 4v123h63q48 0 74 -44q20 -35 20 -85v-173q0 -40 8 -52q7 -14 36 -14v-119z" />
    <glyph glyph-name="asciitilde" unicode="~" horiz-adv-x="333" 
d="M315 308q-35 -38 -86 -38q-27 0 -71 32q-46 32 -55 32q-27 0 -85 -56v111q36 39 86 39q23 0 72 -32q46 -33 54 -33q32 0 85 57v-112z" />
    <glyph glyph-name="cent" unicode="&#xffe0;" 
d="M728 309q-6 -192 -176 -215v-98h-97v100q-92 18 -139 98q-44 69 -44 168q0 95 45 167q48 77 138 97v106h97v-103q83 -12 129 -70q43 -58 46 -142h-125q-8 76 -50 91v-293q42 15 48 94h128zM455 223v277q-55 -42 -55 -137q0 -41 13 -76q15 -43 42 -64z" />
    <glyph glyph-name="cent" unicode="&#xa2;" 
d="M728 309q-6 -192 -176 -215v-98h-97v100q-92 18 -139 98q-44 69 -44 168q0 95 45 167q48 77 138 97v106h97v-103q83 -12 129 -70q43 -58 46 -142h-125q-8 76 -50 91v-293q42 15 48 94h128zM455 223v277q-55 -42 -55 -137q0 -41 13 -76q15 -43 42 -64z" />
    <glyph glyph-name="sterling" unicode="&#xffe1;" 
d="M739 536h-121q-2 87 -71 87q-92 0 -89 -121v-33h143v-125h-140v-45q0 -100 -38 -176h303v-126h-460v115q31 30 52 79q19 47 19 92q0 4 -0.5 24.5t-0.5 36.5h-75v125h73q-1 5 -1 30q-1 107 50 174q58 73 164 73q93 0 144 -59q47 -56 48 -151z" />
    <glyph glyph-name="sterling" unicode="&#xa3;" 
d="M739 536h-121q-2 87 -71 87q-92 0 -89 -121v-33h143v-125h-140v-45q0 -100 -38 -176h303v-126h-460v115q31 30 52 79q19 47 19 92q0 4 -0.5 24.5t-0.5 36.5h-75v125h73q-1 5 -1 30q-1 107 50 174q58 73 164 73q93 0 144 -59q47 -56 48 -151z" />
    <glyph glyph-name="yen" unicode="&#xffe5;" 
d="M862 731l-194 -277h152v-116h-233l-21 -30v-33h254v-116h-254v-163h-132v163h-254v116h254v33l-21 30h-233v116h152l-194 277h160l203 -301l203 301h158z" />
    <glyph glyph-name="yen" unicode="&#xa5;" 
d="M862 731l-194 -277h152v-116h-233l-21 -30v-33h254v-116h-254v-163h-132v163h-254v116h254v33l-21 30h-233v116h152l-194 277h160l203 -301l203 301h158z" />
    <glyph glyph-name="section" unicode="&#xa7;" 
d="M690 106q0 -88 -61 -143q-57 -51 -148 -51q-89 0 -160 37v114q111 -41 160 -41q41 0 71 21q34 25 34 63q0 26 -74 67q-17 8 -47.5 23t-40.5 20q-55 27 -80 57q-34 37 -34 89q0 72 81 138q-67 49 -67 128q0 82 52 133q53 50 137 50q55 0 140 -32v-116q-94 38 -140 38
q-85 0 -85 -73q0 -29 67 -63q101 -54 123 -70q67 -53 67 -120q0 -77 -74 -131q79 -56 79 -138zM581 375q0 25 -90 69q-77 -49 -77 -82q0 -26 84 -59q83 33 83 72z" />
    <glyph glyph-name="dieresis" unicode="&#xf6e8;" 
d="M664 773l-15 -14h-67l-15 14v72l15 15h67l15 -15v-72zM433 773l-15 -14h-68l-14 15v70l14 16h68l15 -15v-72z" />
    <glyph glyph-name="dieresis" unicode="&#x308;" 
d="M664 773l-15 -14h-67l-15 14v72l15 15h67l15 -15v-72zM433 773l-15 -14h-68l-14 15v70l14 16h68l15 -15v-72z" />
    <glyph glyph-name="dieresis" unicode="&#xa8;" 
d="M664 773l-15 -14h-67l-15 14v72l15 15h67l15 -15v-72zM433 773l-15 -14h-68l-14 15v70l14 16h68l15 -15v-72z" />
    <glyph glyph-name="copyright" unicode="&#xa9;" horiz-adv-x="792" 
d="M752 360q0 -146 -104 -252q-104 -104 -252 -104t-252 104t-104 252t104 252q106 104 252 104t252 -104q104 -106 104 -252zM693 360q0 123 -87 210t-210 87t-210 -87t-87 -210t87 -210q86 -86 210 -86t210 86q87 87 87 210zM584 476l-71 -26q-33 82 -107 82
q-49 0 -89 -46q-42 -52 -42 -134q0 -80 39 -125q33 -39 82 -39q43 0 66 22q26 22 46 72l70 -28q-58 -140 -182 -140q-84 0 -140 66q-56 65 -56 172q0 109 59 181q59 73 147 73q127 0 178 -130z" />
    <glyph glyph-name="logicalnot" unicode="&#xffe2;" 
d="M955 172h-127v149h-783v126h910v-275z" />
    <glyph glyph-name="logicalnot" unicode="&#xf817;" 
d="M955 172h-127v149h-783v126h910v-275z" />
    <glyph glyph-name="logicalnot" unicode="&#xac;" 
d="M955 172h-127v149h-783v126h910v-275z" />
    <glyph glyph-name="macron" unicode="&#x203e;" 
d="M1000 799h-1000v61h1000v-61z" />
    <glyph glyph-name="macron" unicode="&#x304;" 
d="M1000 799h-1000v61h1000v-61z" />
    <glyph glyph-name="macron" unicode="&#xaf;" 
d="M1000 799h-1000v61h1000v-61z" />
    <glyph glyph-name="degree" unicode="&#xb0;" 
d="M294 709q0 -55 -40 -95q-39 -39 -94 -39t-94 39q-40 39 -40 95q0 55 40 95q39 39 94 39t94 -39q40 -42 40 -95zM217 709q0 22 -17 41q-18 16 -40 16q-24 0 -40 -16q-17 -17 -17 -41t17 -40q16 -17 40 -17q23 0 40 17t17 40z" />
    <glyph glyph-name="plusminus" unicode="&#xb1;" 
d="M849 394h-286v-189h-126v189h-286v126h286v189h126v-189h286v-126zM849 0h-698v126h698v-126z" />
    <glyph glyph-name="periodcentered" unicode="&#xb7;" 
d="M327 283h-153v153h153v-153z" />
    <glyph glyph-name="Agrave" unicode="&#xf31c;" 
 />
    <glyph glyph-name="Agrave" unicode="&#xc0;" 
 />
    <glyph glyph-name="Aacute" unicode="&#xf31a;" 
 />
    <glyph glyph-name="Aacute" unicode="&#xc1;" 
 />
    <glyph glyph-name="Egrave" unicode="&#xf320;" 
 />
    <glyph glyph-name="Egrave" unicode="&#xc8;" 
 />
    <glyph glyph-name="Eacute" unicode="&#xf31e;" 
 />
    <glyph glyph-name="Eacute" unicode="&#xc9;" 
 />
    <glyph glyph-name="Ecircumflex" unicode="&#xf329;" 
 />
    <glyph glyph-name="Ecircumflex" unicode="&#xca;" 
 />
    <glyph glyph-name="Ograve" unicode="&#xf324;" 
 />
    <glyph glyph-name="Ograve" unicode="&#xd2;" 
 />
    <glyph glyph-name="Oacute" unicode="&#xf322;" 
 />
    <glyph glyph-name="Oacute" unicode="&#xd3;" 
 />
    <glyph glyph-name="multiply" unicode="&#xd7;" 
d="M830 119l-89 -89l-241 242l-241 -242l-89 89l242 241l-242 241l89 89l241 -242l241 242l89 -89l-242 -241z" />
    <glyph glyph-name="agrave" unicode="&#xf32d;" 
 />
    <glyph glyph-name="agrave" unicode="&#xe0;" 
 />
    <glyph glyph-name="aacute" unicode="&#xf32b;" 
 />
    <glyph glyph-name="aacute" unicode="&#xe1;" 
 />
    <glyph glyph-name="egrave" unicode="&#xf332;" 
 />
    <glyph glyph-name="egrave" unicode="&#xe8;" 
 />
    <glyph glyph-name="eacute" unicode="&#xf330;" 
 />
    <glyph glyph-name="eacute" unicode="&#xe9;" 
 />
    <glyph glyph-name="ecircumflex" unicode="&#xf348;" 
 />
    <glyph glyph-name="ecircumflex" unicode="&#xea;" 
 />
    <glyph glyph-name="igrave" unicode="&#xf336;" 
 />
    <glyph glyph-name="igrave" unicode="&#xec;" 
 />
    <glyph glyph-name="iacute" unicode="&#xf334;" 
 />
    <glyph glyph-name="iacute" unicode="&#xed;" 
 />
    <glyph glyph-name="ograve" unicode="&#xf33a;" 
 />
    <glyph glyph-name="ograve" unicode="&#xf2;" 
 />
    <glyph glyph-name="oacute" unicode="&#xf338;" 
 />
    <glyph glyph-name="oacute" unicode="&#xf3;" 
 />
    <glyph glyph-name="divide" unicode="&#xf7;" 
d="M577 547h-153v153h153v-153zM849 297h-698v126h698v-126zM577 20h-153v153h153v-153z" />
    <glyph glyph-name="oslash" unicode="&#xf845;" 
 />
    <glyph glyph-name="oslash" unicode="&#xf8;" 
 />
    <glyph glyph-name="ugrave" unicode="&#xf33e;" 
 />
    <glyph glyph-name="ugrave" unicode="&#xf9;" 
 />
    <glyph glyph-name="uacute" unicode="&#xf33c;" 
 />
    <glyph glyph-name="uacute" unicode="&#xfa;" 
 />
    <glyph glyph-name="udieresis" unicode="&#xf343;" 
 />
    <glyph glyph-name="udieresis" unicode="&#xfc;" 
 />
    <glyph glyph-name="Amacron" unicode="&#xf319;" 
 />
    <glyph glyph-name="Amacron" unicode="&#x100;" 
 />
    <glyph glyph-name="amacron" unicode="&#xf32a;" 
 />
    <glyph glyph-name="amacron" unicode="&#x101;" 
 />
    <glyph glyph-name="Emacron" unicode="&#xf31d;" 
 />
    <glyph glyph-name="Emacron" unicode="&#x112;" 
 />
    <glyph glyph-name="emacron" unicode="&#xf32f;" 
 />
    <glyph glyph-name="emacron" unicode="&#x113;" 
 />
    <glyph glyph-name="Ecaron" unicode="&#xf31f;" 
 />
    <glyph glyph-name="Ecaron" unicode="&#x11a;" 
 />
    <glyph glyph-name="ecaron" unicode="&#xf331;" 
 />
    <glyph glyph-name="ecaron" unicode="&#x11b;" 
 />
    <glyph glyph-name="imacron" unicode="&#xf333;" 
 />
    <glyph glyph-name="imacron" unicode="&#x12b;" 
 />
    <glyph glyph-name="eng" unicode="&#xf846;" 
 />
    <glyph glyph-name="eng" unicode="&#x14b;" 
 />
    <glyph glyph-name="Omacron" unicode="&#xf321;" 
 />
    <glyph glyph-name="Omacron" unicode="&#x14c;" 
 />
    <glyph glyph-name="omacron" unicode="&#xf337;" 
 />
    <glyph glyph-name="omacron" unicode="&#x14d;" 
 />
    <glyph glyph-name="oe" unicode="&#xf844;" 
 />
    <glyph glyph-name="oe" unicode="&#x153;" 
 />
    <glyph glyph-name="umacron" unicode="&#xf33b;" 
 />
    <glyph glyph-name="umacron" unicode="&#x16b;" 
 />
    <glyph glyph-name="uni01CD" unicode="&#xf31b;" 
 />
    <glyph glyph-name="uni01CD" unicode="&#x1cd;" 
 />
    <glyph glyph-name="uni01CE" unicode="&#xf32c;" 
 />
    <glyph glyph-name="uni01CE" unicode="&#x1ce;" 
 />
    <glyph glyph-name="uni01D0" unicode="&#xf335;" 
 />
    <glyph glyph-name="uni01D0" unicode="&#x1d0;" 
 />
    <glyph glyph-name="uni01D1" unicode="&#xf323;" 
 />
    <glyph glyph-name="uni01D1" unicode="&#x1d1;" 
 />
    <glyph glyph-name="uni01D2" unicode="&#xf339;" 
 />
    <glyph glyph-name="uni01D2" unicode="&#x1d2;" 
 />
    <glyph glyph-name="uni01D4" unicode="&#xf33d;" 
 />
    <glyph glyph-name="uni01D4" unicode="&#x1d4;" 
 />
    <glyph glyph-name="uni01D6" unicode="&#xf33f;" 
 />
    <glyph glyph-name="uni01D6" unicode="&#x1d6;" 
 />
    <glyph glyph-name="uni01D8" unicode="&#xf340;" 
 />
    <glyph glyph-name="uni01D8" unicode="&#x1d8;" 
 />
    <glyph glyph-name="uni01DA" unicode="&#xf341;" 
 />
    <glyph glyph-name="uni01DA" unicode="&#x1da;" 
 />
    <glyph glyph-name="uni01DC" unicode="&#xf342;" 
 />
    <glyph glyph-name="uni01DC" unicode="&#x1dc;" 
 />
    <glyph glyph-name="uni0250" unicode="&#xf840;" 
 />
    <glyph glyph-name="uni0250" unicode="&#x250;" 
 />
    <glyph glyph-name="uni0251" unicode="&#xf32e;" 
 />
    <glyph glyph-name="uni0251" unicode="&#x251;" 
 />
    <glyph glyph-name="uni0254" unicode="&#xf842;" 
 />
    <glyph glyph-name="uni0254" unicode="&#x254;" 
 />
    <glyph glyph-name="uni025B" unicode="&#xf841;" 
 />
    <glyph glyph-name="uni025B" unicode="&#x25b;" 
 />
    <glyph glyph-name="uni0261" unicode="&#xf349;" 
 />
    <glyph glyph-name="uni0261" unicode="&#x261;" 
 />
    <glyph glyph-name="uni026A" unicode="&#xf848;" 
 />
    <glyph glyph-name="uni026A" unicode="&#x26a;" 
 />
    <glyph glyph-name="uni0275" unicode="&#xf843;" 
 />
    <glyph glyph-name="uni0275" unicode="&#x275;" 
 />
    <glyph glyph-name="uni0283" unicode="&#xf83f;" 
 />
    <glyph glyph-name="uni0283" unicode="&#x283;" 
 />
    <glyph glyph-name="uni028A" unicode="&#xf847;" 
 />
    <glyph glyph-name="uni028A" unicode="&#x28a;" 
 />
    <glyph glyph-name="circumflex" unicode="&#xff3e;" 
d="M725 761h-137l-86 39l-91 -39h-136l153 99h144z" />
    <glyph glyph-name="circumflex" unicode="&#xf6e9;" 
d="M725 761h-137l-86 39l-91 -39h-136l153 99h144z" />
    <glyph glyph-name="circumflex" unicode="&#x2c6;" 
d="M725 761h-137l-86 39l-91 -39h-136l153 99h144z" />
    <glyph glyph-name="caron" unicode="&#x30c;" 
d="M702 457l-204 -263l-204 263l55 65l149 -158l149 158z" />
    <glyph glyph-name="caron" unicode="&#x2c7;" 
d="M702 457l-204 -263l-204 263l55 65l149 -158l149 158z" />
    <glyph glyph-name="uni02CA" unicode="&#x2ca;" 
d="M721 512l-282 -305h-159l324 305h117z" />
    <glyph glyph-name="uni02CB" unicode="&#x2cb;" 
d="M721 207h-117l-324 305h159z" />
    <glyph glyph-name="uni02CD" unicode="&#x2cd;" 
d="M1000 -140h-1000v94h1000v-94z" />
    <glyph glyph-name="dotaccent" unicode="&#x2d9;" 
d="M635 360q0 -57 -39 -96q-40 -39 -96 -39q-57 0 -96 39t-39 96q0 56 39 96q39 39 96 39q56 0 96 -39q39 -40 39 -96z" />
    <glyph glyph-name="Alpha" unicode="&#x391;" 
d="M874 -4h-139l-81 182h-308l-80 -182h-140l320 735h107zM602 298l-103 245l-101 -245h204z" />
    <glyph glyph-name="Beta" unicode="&#x392;" 
d="M766 210q0 -102 -76 -161q-68 -53 -175 -53h-281v735h266q98 0 165 -52q73 -58 73 -153q0 -87 -70 -143q98 -59 98 -173zM603 521q0 90 -121 90h-121v-177h123q48 0 81 18q38 23 38 69zM632 217q0 63 -65 86q-39 12 -119 12h-87v-199h125q69 0 100 17q46 25 46 84z" />
    <glyph glyph-name="Gamma" unicode="&#x393;" 
d="M777 608h-427v-611h-126v734h553v-123z" />
    <glyph glyph-name="uni0394" unicode="&#x394;" 
d="M847 -4h-694l287 735h119zM663 115l-163 425l-164 -425h327z" />
    <glyph glyph-name="Epsilon" unicode="&#x395;" 
d="M784 -4h-567v735h552v-122h-425v-174h412v-122h-412v-195h440v-122z" />
    <glyph glyph-name="Zeta" unicode="&#x396;" 
d="M761 -4h-522v96l349 517h-343v122h514v-97l-350 -516h352v-122z" />
    <glyph glyph-name="Eta" unicode="&#x397;" 
d="M785 -4h-129v318h-312v-318h-129v735h129v-295h312v295h129v-735z" />
    <glyph glyph-name="Theta" unicode="&#x398;" 
d="M851 362q0 -170 -90 -272q-95 -108 -262 -108t-261 108q-89 101 -89 272q0 172 89 274q93 110 261 110q167 0 262 -110q90 -105 90 -274zM714 362q0 109 -50 182q-59 80 -165 80q-107 0 -164 -80q-49 -70 -49 -182t50 -180q57 -78 163 -78q105 0 163 79q52 70 52 179z
M674 306h-344v117h344v-117z" />
    <glyph glyph-name="Iota" unicode="&#x399;" 
d="M565 -4h-130v735h130v-735z" />
    <glyph glyph-name="Kappa" unicode="&#x39a;" 
d="M786 -4h-172l-275 328v-328h-125v735h125v-249l254 249h172l-333 -321z" />
    <glyph glyph-name="Lambda" unicode="&#x39b;" 
d="M844 -4h-143l-200 537l-202 -537h-143l284 735h122z" />
    <glyph glyph-name="Mu" unicode="&#x39c;" 
d="M843 -4h-119v426l-172 -426h-104l-172 426v-426h-119v735h114l229 -561l229 561h114v-735z" />
    <glyph glyph-name="Nu" unicode="&#x39d;" 
d="M793 -4h-127l-328 512v-512h-131v735h131l325 -509v509h130v-735z" />
    <glyph glyph-name="Xi" unicode="&#x39e;" 
d="M791 602h-582v129h582v-129zM777 310h-554v129h554v-129zM809 -4h-618v129h618v-129z" />
    <glyph glyph-name="Omicron" unicode="&#x39f;" 
d="M851 362q0 -170 -90 -272q-95 -108 -262 -108t-261 108q-89 101 -89 272q0 172 89 274q93 110 261 110q167 0 262 -110q90 -105 90 -274zM714 362q0 109 -50 182q-59 80 -165 80q-107 0 -164 -80q-49 -70 -49 -182t50 -180q57 -78 163 -78q105 0 163 79q52 70 52 179z
" />
    <glyph glyph-name="Pi" unicode="&#x3a0;" 
d="M785 -4h-129v612h-311v-612h-130v735h570v-735z" />
    <glyph glyph-name="Rho" unicode="&#x3a1;" 
d="M764 491q0 -251 -325 -251h-74v-244h-129v735h199q329 0 329 -240zM631 489q0 60 -48 93q-42 27 -105 27h-113v-247h113q69 0 108 29q45 33 45 98z" />
    <glyph glyph-name="Sigma" unicode="&#x3a3;" 
d="M761 -4h-522v96l256 271l-250 269v99h512v-122h-329l231 -245l-231 -246h333v-122z" />
    <glyph glyph-name="Tau" unicode="&#x3a4;" 
d="M795 609h-230v-613h-130v613h-230v122h590v-122z" />
    <glyph glyph-name="Upsilon" unicode="&#x3a5;" 
d="M890 508h-135q-18 114 -67 114q-68 0 -101 -75q-24 -56 -24 -134v-417h-134v417q0 76 -23 133q-33 76 -99 76q-53 0 -62 -114h-135q35 238 197 238q121 0 189 -117q62 117 192 117q154 0 202 -238z" />
    <glyph glyph-name="Phi" unicode="&#x3a6;" 
d="M857 375q0 -122 -88 -198q-78 -67 -205 -84v-97h-128v97q-127 16 -205 84q-88 75 -88 198t88 198q77 66 205 84v74h128v-74q127 -17 205 -84q88 -77 88 -198zM723 375q0 133 -159 163v-324q159 30 159 161zM436 213v324q-158 -31 -158 -162t158 -162z" />
    <glyph glyph-name="Chi" unicode="&#x3a7;" 
d="M867 -4h-160l-208 291l-206 -291h-160l287 384l-261 351h162l178 -253l180 253h161l-261 -351z" />
    <glyph glyph-name="Psi" unicode="&#x3a8;" 
d="M846 481q0 -121 -83 -192q-73 -63 -200 -78v-215h-128v214q-127 15 -199 80q-82 72 -82 192v249h129v-260q0 -112 152 -139v399h128v-399q155 27 155 139v260h128v-250z" />
    <glyph glyph-name="uni03A9" unicode="&#x3a9;" 
d="M851 -4h-307v105q78 48 124 125q47 77 47 166q0 101 -57 164q-59 64 -158 64q-100 0 -158 -64q-57 -63 -57 -164q0 -93 47 -168q44 -75 124 -123v-105h-307v127h117q-115 114 -115 264q0 157 96 259q97 100 253 100t253 -100q96 -102 96 -259q0 -149 -115 -264h117v-127z
" />
    <glyph glyph-name="alpha" unicode="&#x3b1;" 
d="M805 145q-45 -71 -71 -97q-50 -53 -101 -53q-59 0 -89 46q-71 -58 -145 -58q-97 0 -151 54q-53 53 -53 150q0 124 71 225q78 113 197 113q135 0 165 -137q35 70 53 120l122 -38q-57 -157 -144 -293q-3 -4 -9.5 -14t-9.5 -15q-4 -8 -4 -19q0 -13 9 -13q11 0 54 92z
M512 172v81q0 90 -5 113q-12 41 -44 41q-59 0 -101 -83q-36 -72 -36 -137q0 -87 73 -87q55 0 113 72z" />
    <glyph glyph-name="beta" unicode="&#x3b2;" 
d="M788 551q0 -102 -102 -159q80 -66 80 -165q0 -118 -68 -181q-69 -63 -188 -63q-78 0 -145 58q-20 -101 -25 -127h-128l110 584q20 110 82 175q70 73 176 73q88 0 149 -53q59 -54 59 -142zM657 554q0 30 -23 51q-24 21 -54 21q-105 0 -138 -164q-1 -5 -6.5 -34.5
t-19.5 -102t-27 -142.5q17 -33 51 -57t69 -24q60 0 93 32q33 33 33 93q0 112 -120 112q-2 0 -9.5 -0.5l-22.5 -1.5l-30 -2l23 136q39 -10 55 -10q49 0 84 22q42 25 42 71z" />
    <glyph glyph-name="gamma" unicode="&#x3b3;" 
d="M820 404q-116 -24 -174 -67q-71 -54 -97 -156q-20 -84 -77 -296l-128 26q29 99 91 346q10 45 10 65q0 69 -53 69q-32 0 -66 -28q-21 -17 -51 -53l-95 89q69 60 99 78q54 33 120 33q50 0 89 -30q37 -29 56 -79q104 101 214 124z" />
    <glyph glyph-name="delta" unicode="&#x3b4;" 
d="M786 562l-103 -79q-119 141 -146 141q-14 0 -14 -11q0 -13 45 -61q54 -61 82 -108q45 -75 45 -149q0 -123 -73 -214q-78 -99 -198 -99q-97 0 -154 60t-57 157q0 111 59 202q63 101 164 123q-47 53 -47 110q0 52 39 83q37 29 88 29q74 0 152 -63q45 -38 118 -121zM561 320
q0 96 -62 96q-67 0 -112 -81q-37 -68 -37 -143q0 -92 72 -92q74 0 111 77q28 62 28 143z" />
    <glyph glyph-name="epsilon" unicode="&#x3b5;" 
d="M718 437l-82 -91q-30 20 -57 39q-34 21 -65 21q-39 0 -39 -37q0 -43 74 -49q18 -3 99 -3l-23 -125q-56 16 -107 16q-109 0 -109 -61q0 -24 27 -36q20 -10 47 -10q53 0 138 57l73 -101q-124 -74 -207 -74q-81 0 -139 40q-66 43 -66 122q0 98 99 143q-35 36 -35 85
q0 69 46 111q46 41 117 41q95 0 209 -88z" />
    <glyph glyph-name="zeta" unicode="&#x3b6;" 
d="M742 627q-89 -50 -108 -62q-72 -43 -99 -72q-41 -43 -93 -130q-59 -99 -59 -137q0 -19 60 -37q19 -6 79 -22q62 -16 139 -43q80 -39 80 -102q0 -70 -56 -117q-54 -43 -124 -43q-109 0 -223 90q7 10 83 97q77 -62 140 -62q38 0 38 20q0 10 -54 25l-69 18q-67 18 -73 20
q-43 12 -69 26q-76 42 -76 117q0 63 47 157q39 78 86 143q-92 12 -92 95q0 58 81 138l102 -74q-55 -33 -55 -54q0 -8 15 -8q52 0 219 119z" />
    <glyph glyph-name="eta" unicode="&#x3b7;" 
d="M777 368q0 -51 -19 -122l-100 -354h-136l105 371q18 65 18 99q0 18 -15 31q-16 13 -33 13q-38 0 -87 -40l-105 -368h-134l108 373q2 6 5.5 18t4.5 16q-17 -6 -78 -73l-87 86q58 58 78 73q48 34 100 34t79 -45q57 45 133 45q68 0 116 -45q47 -45 47 -112z" />
    <glyph glyph-name="theta" unicode="&#x3b8;" 
d="M766 498q0 -179 -97 -341q-105 -175 -240 -175q-103 0 -152 73q-43 62 -43 170q0 101 41 215q45 129 118 211q84 95 187 95q186 0 186 -248zM637 498q0 131 -57 131q-54 0 -109 -73q-41 -54 -66 -124h228q4 48 4 66zM607 314h-235q-9 -51 -9 -89q0 -55 9 -80
q14 -45 57 -45q58 0 113 80q42 62 65 134z" />
    <glyph glyph-name="iota" unicode="&#x3b9;" 
d="M715 163q-80 -86 -134 -123q-84 -57 -169 -57q-128 0 -128 119q0 35 118 408h134q-122 -372 -122 -393q0 -16 20 -16q58 0 193 147z" />
    <glyph glyph-name="kappa" unicode="&#x3ba;" 
d="M780 133q-81 -150 -179 -150q-61 0 -87 44q-17 26 -28 98q-3 25 -6 39q-6 27 -12 36q-19 22 -70 25l-52 -229h-126l115 515h128l-33 -143q70 68 123 114q48 43 102 43q85 0 124 -115l-106 -37q-6 40 -23 40q-7 0 -64 -49q-63 -56 -70 -63q56 -27 79 -81q2 -7 10 -70
q6 -53 15 -53q14 0 66 95z" />
    <glyph glyph-name="lambda" unicode="&#x3bb;" 
d="M840 81q-40 -49 -70 -70q-43 -29 -92 -29q-165 0 -165 188q0 41 7 91q-151 -169 -212 -266h-147q161 240 382 458q9 45 9 74q0 26 -18 47q-18 20 -43 20q-44 0 -93 -20l-42 111q69 26 142 26q78 0 125 -47q46 -49 46 -126q0 -59 -20 -184q-20 -117 -20 -184q0 -68 59 -68
q20 0 66 61z" />
    <glyph glyph-name="uni03BC" unicode="&#x3bc;" 
d="M843 111q-67 -70 -86 -85q-54 -42 -110 -42q-53 0 -91 46q-60 -46 -134 -46q-60 0 -100 36q-19 -79 -31 -125h-134q31 103 83 249q1 2 4 9.5t5 13.5q0 10 5 38q19 130 95 321l122 -46q-90 -224 -90 -318q0 -59 41 -59q64 0 104 91q14 34 40 121q6 20 25.5 88.5
t32.5 114.5l129 -29l-110 -368q-3 -7 3 -13q4 -5 12 -5q21 0 93 96z" />
    <glyph glyph-name="nu" unicode="&#x3bd;" 
d="M763 491q-38 -208 -127 -315q-84 -102 -280 -193q-39 31 -70 60q55 115 55 268q0 39 -34 75q-23 22 -70 50l85 87q73 -44 105 -85q40 -54 40 -127q0 -71 -8 -138q79 61 123 149q35 74 56 187z" />
    <glyph glyph-name="xi" unicode="&#x3be;" 
d="M747 564l-11 -128q-20 1 -116 13q-80 9 -99 9q-54 0 -54 -35q0 -37 51 -42q59 -7 174 -8l-11 -131q-169 20 -238 20q-63 0 -63 -26q0 -24 82 -49q119 -40 152 -58q82 -46 82 -114q0 -71 -52 -112q-48 -37 -121 -37q-93 0 -198 75l80 101q71 -56 128 -56q35 0 35 17
q0 11 -37 30q-34 12 -107 35q-67 19 -104 42q-67 42 -67 110q0 53 38 88q24 22 86 48q-37 37 -37 87q0 94 96 136q-20 29 -20 62q0 47 42 77q39 28 87 28q77 0 157 -62q-27 -34 -71 -94q-48 36 -77 36q-18 0 -18 -22q0 -25 23 -28q3 -1 53 -4q74 -6 135 -8z" />
    <glyph glyph-name="omicron" unicode="&#x3bf;" 
d="M758 297q0 -137 -77 -223q-81 -91 -214 -91q-105 0 -165 63t-60 169q0 132 82 221q81 89 209 89q105 0 165 -62q60 -63 60 -166zM624 284q0 52 -24 85q-27 36 -77 36q-65 0 -107 -60q-39 -54 -39 -121q0 -52 24 -85q27 -36 77 -36q67 0 108 59q38 55 38 122z" />
    <glyph glyph-name="pi" unicode="&#x3c0;" 
d="M855 455q-76 -76 -177 -76l-75 -258q-6 -17 18 -17q34 0 89 52l80 -96q-104 -77 -169 -77q-145 0 -145 127q0 35 70 269h-74q-57 -258 -245 -395l-82 88q154 117 199 302q-27 -6 -51 -24q-6 -4 -42 -39l-95 80q71 66 104 81q48 24 141 24h254q41 0 59 7q18 6 50 32z" />
    <glyph glyph-name="rho" unicode="&#x3c1;" 
d="M795 303q0 -129 -74 -220q-79 -99 -205 -99q-93 0 -150 64l-12 -163h-149q26 203 94 402q81 238 272 238q103 0 164 -59q60 -60 60 -163zM661 298q0 115 -90 115q-66 0 -105 -69q-34 -58 -34 -128q0 -117 91 -117q63 0 104 71q34 62 34 128z" />
    <glyph glyph-name="sigma" unicode="&#x3c3;" 
d="M831 409q-83 -57 -159 -51q5 -20 5 -49q0 -131 -71 -225q-77 -101 -206 -101q-106 0 -168 61q-64 61 -64 166q0 128 82 222q82 93 209 93q81 0 140 -39q60 -9 89 -9q35 0 76 28zM543 283q0 126 -89 126q-69 0 -114 -62q-40 -56 -40 -127q0 -121 107 -121q60 0 100 65
q36 56 36 119z" />
    <glyph glyph-name="tau" unicode="&#x3c4;" 
d="M772 450q-84 -75 -172 -75h-58q-14 -38 -47 -137q-37 -111 -37 -121q0 -18 20 -18q21 0 105 90l88 -89q-51 -54 -90 -80q-59 -37 -113 -37q-53 0 -93 26q-45 30 -45 81q0 42 87 285q-37 -3 -83 -61l-106 69q89 113 189 113h183q38 0 79 38z" />
    <glyph glyph-name="upsilon" unicode="&#x3c5;" 
d="M739 354q0 -132 -85 -247q-93 -124 -222 -124q-80 0 -126 46q-45 45 -45 126q0 45 23 124q24 81 24 124q0 21 -31 61l117 57q42 -63 42 -118q0 -41 -24 -125t-24 -123q0 -54 44 -54q66 0 123 90q51 81 51 152q0 52 -35 136l121 45q47 -109 47 -170z" />
    <glyph glyph-name="phi" unicode="&#x3c6;" 
d="M811 287q0 -128 -77 -205q-73 -75 -202 -88l-18 -111h-130l18 114q-92 18 -150 77q-63 63 -63 154q0 126 86 203q77 70 207 85l25 169h131l-28 -175q88 -21 142 -77q59 -62 59 -146zM679 276q0 80 -88 112l-41 -268q129 30 129 156zM463 393q-142 -30 -142 -156
q0 -42 30 -75q26 -31 69 -43z" />
    <glyph glyph-name="chi" unicode="&#x3c7;" 
d="M832 510l-264 -314q1 -41 11 -138q7 -51 27 -51q23 0 92 109l101 -84q-61 -77 -82 -96q-55 -49 -110 -49q-78 0 -113 55q-28 44 -32 128l-140 -169h-154l282 336q-6 57 -12 115q-6 53 -21 53q-14 0 -57 -70l-114 62q49 69 68 88q43 40 100 40q125 0 134 -171l130 156h154
z" />
    <glyph glyph-name="psi" unicode="&#x3c8;" 
d="M848 296q0 -122 -78 -212q-79 -91 -199 -100l-12 -86h-132l13 85q-167 18 -167 164q0 42 26 123q26 83 26 116q0 8 -4 8q-9 0 -62 -78l-107 75q56 68 83 90q54 43 110 43q110 0 110 -119q0 -42 -27 -129t-27 -129q0 -40 56 -52l89 586h131l-87 -574q61 15 98 71
q33 49 33 118q0 88 -62 150q17 14 97 78q92 -100 92 -228z" />
    <glyph glyph-name="omega" unicode="&#x3c9;" 
d="M863 262q0 -113 -68 -193q-73 -86 -183 -86q-106 0 -148 70q-62 -46 -133 -46q-91 0 -142 55q-52 55 -52 147q0 187 237 322l74 -103q-172 -96 -172 -216q0 -86 55 -86q75 0 105 100q11 38 43 178l131 -26l-46 -186q-5 -18 -5 -35q0 -55 49 -55q53 0 87 55q29 49 29 105
q0 94 -86 168l95 82q130 -112 130 -250z" />
    <glyph glyph-name="afii10023" unicode="&#xf7a6;" 
d="M664 773l-15 -14h-67l-15 14v72l15 15h67l15 -15v-72zM433 773l-15 -14h-68l-14 15v70l14 16h68l15 -15v-72zM784 -4h-567v735h552v-122h-425v-174h412v-122h-412v-195h440v-122z" />
    <glyph glyph-name="afii10023" unicode="&#x401;" 
d="M664 773l-15 -14h-67l-15 14v72l15 15h67l15 -15v-72zM433 773l-15 -14h-68l-14 15v70l14 16h68l15 -15v-72zM784 -4h-567v735h552v-122h-425v-174h412v-122h-412v-195h440v-122z" />
    <glyph glyph-name="afii10017" unicode="&#xf7a0;" 
d="M874 -4h-139l-81 182h-308l-80 -182h-140l320 735h107zM602 298l-103 245l-101 -245h204z" />
    <glyph glyph-name="afii10017" unicode="&#x410;" 
d="M874 -4h-139l-81 182h-308l-80 -182h-140l320 735h107zM602 298l-103 245l-101 -245h204z" />
    <glyph glyph-name="afii10018" unicode="&#xf7a1;" 
d="M766 207q0 -101 -77 -158q-68 -53 -173 -53h-282v735h481v-124h-351v-171h126q276 0 276 -229zM631 210q0 60 -46 85q-36 17 -101 17h-120v-193h120q147 0 147 91z" />
    <glyph glyph-name="afii10018" unicode="&#x411;" 
d="M766 207q0 -101 -77 -158q-68 -53 -173 -53h-282v735h481v-124h-351v-171h126q276 0 276 -229zM631 210q0 60 -46 85q-36 17 -101 17h-120v-193h120q147 0 147 91z" />
    <glyph glyph-name="afii10019" unicode="&#xf7a2;" 
d="M766 210q0 -102 -76 -161q-68 -53 -175 -53h-281v735h266q98 0 165 -52q73 -58 73 -153q0 -87 -70 -143q98 -59 98 -173zM603 521q0 90 -121 90h-121v-177h123q48 0 81 18q38 23 38 69zM632 217q0 63 -65 86q-39 12 -119 12h-87v-199h125q69 0 100 17q46 25 46 84z" />
    <glyph glyph-name="afii10019" unicode="&#x412;" 
d="M766 210q0 -102 -76 -161q-68 -53 -175 -53h-281v735h266q98 0 165 -52q73 -58 73 -153q0 -87 -70 -143q98 -59 98 -173zM603 521q0 90 -121 90h-121v-177h123q48 0 81 18q38 23 38 69zM632 217q0 63 -65 86q-39 12 -119 12h-87v-199h125q69 0 100 17q46 25 46 84z" />
    <glyph glyph-name="afii10020" unicode="&#xf7a3;" 
d="M777 608h-427v-611h-126v734h553v-123z" />
    <glyph glyph-name="afii10020" unicode="&#x413;" 
d="M777 608h-427v-611h-126v734h553v-123z" />
    <glyph glyph-name="afii10021" unicode="&#xf7a4;" 
d="M834 -107h-133v104h-403v-104h-131v230h93l117 608h367v-608h90v-230zM614 123v484h-130l-94 -484h224z" />
    <glyph glyph-name="afii10021" unicode="&#x414;" 
d="M834 -107h-133v104h-403v-104h-131v230h93l117 608h367v-608h90v-230zM614 123v484h-130l-94 -484h224z" />
    <glyph glyph-name="afii10022" unicode="&#xf7a5;" 
d="M784 -4h-567v735h552v-122h-425v-174h412v-122h-412v-195h440v-122z" />
    <glyph glyph-name="afii10022" unicode="&#x415;" 
d="M784 -4h-567v735h552v-122h-425v-174h412v-122h-412v-195h440v-122z" />
    <glyph glyph-name="afii10024" unicode="&#xf7a7;" 
d="M919 -4h-144l-183 328q-9 -4 -30 -8v-320h-123v320l-31 8l-183 -328h-144l220 384q-133 104 -161 351h123q28 -245 175 -287v287h124v-287q145 42 175 287h123q-30 -248 -161 -351z" />
    <glyph glyph-name="afii10024" unicode="&#x416;" 
d="M919 -4h-144l-183 328q-9 -4 -30 -8v-320h-123v320l-31 8l-183 -328h-144l220 384q-133 104 -161 351h123q28 -245 175 -287v287h124v-287q145 42 175 287h123q-30 -248 -161 -351z" />
    <glyph glyph-name="afii10025" unicode="&#xf7a8;" 
d="M752 213q0 -104 -78 -169q-74 -62 -180 -62q-119 0 -180 64q-64 64 -65 182h134q3 -122 110 -122q50 0 85 32t35 82q0 44 -29 71q-30 27 -75 27q-23 0 -65 -9v142q36 -6 60 -6q41 0 70 23q29 24 29 64q0 42 -32 66q-33 24 -75 24q-56 0 -79 -24q-23 -25 -28 -81h-132
q4 106 65 168q61 61 166 61q108 0 179 -53q76 -61 76 -165q0 -45 -25 -86q-28 -41 -68 -62q102 -63 102 -167z" />
    <glyph glyph-name="afii10025" unicode="&#x417;" 
d="M752 213q0 -104 -78 -169q-74 -62 -180 -62q-119 0 -180 64q-64 64 -65 182h134q3 -122 110 -122q50 0 85 32t35 82q0 44 -29 71q-30 27 -75 27q-23 0 -65 -9v142q36 -6 60 -6q41 0 70 23q29 24 29 64q0 42 -32 66q-33 24 -75 24q-56 0 -79 -24q-23 -25 -28 -81h-132
q4 106 65 168q61 61 166 61q108 0 179 -53q76 -61 76 -165q0 -45 -25 -86q-28 -41 -68 -62q102 -63 102 -167z" />
    <glyph glyph-name="afii10026" unicode="&#xf7a9;" 
d="M792 -4h-132v447l-319 -369v-78h-133v735h133v-471l319 371v100h132v-735z" />
    <glyph glyph-name="afii10026" unicode="&#x418;" 
d="M792 -4h-132v447l-319 -369v-78h-133v735h133v-471l319 371v100h132v-735z" />
    <glyph glyph-name="afii10027" unicode="&#xf7aa;" 
d="M686 860q-84 -96 -191 -96q-117 0 -181 96h115q24 -31 69 -31q40 0 67 31h121zM792 -4h-132v447l-319 -369v-78h-133v735h133v-471l319 371v100h132v-735z" />
    <glyph glyph-name="afii10027" unicode="&#x419;" 
d="M686 860q-84 -96 -191 -96q-117 0 -181 96h115q24 -31 69 -31q40 0 67 31h121zM792 -4h-132v447l-319 -369v-78h-133v735h133v-471l319 371v100h132v-735z" />
    <glyph glyph-name="afii10028" unicode="&#xf7ab;" 
d="M769 -4h-148l-176 347q-40 -7 -83 -9v-338h-131v735h131v-273q123 8 180 81q42 57 66 192h133q-23 -124 -51 -191q-45 -102 -124 -148z" />
    <glyph glyph-name="afii10028" unicode="&#x41a;" 
d="M769 -4h-148l-176 347q-40 -7 -83 -9v-338h-131v735h131v-273q123 8 180 81q42 57 66 192h133q-23 -124 -51 -191q-45 -102 -124 -148z" />
    <glyph glyph-name="afii10029" unicode="&#xf7ac;" 
d="M832 -4h-131v612h-164l-76 -442q-15 -78 -65 -124t-128 -46h-99v123h84q70 0 82 70l93 542h404v-735z" />
    <glyph glyph-name="afii10029" unicode="&#x41b;" 
d="M832 -4h-131v612h-164l-76 -442q-15 -78 -65 -124t-128 -46h-99v123h84q70 0 82 70l93 542h404v-735z" />
    <glyph glyph-name="afii10030" unicode="&#xf7ad;" 
d="M878 -4h-131l-71 445l-120 -445h-112l-120 445l-70 -445h-132l129 735h113l136 -499l137 499h113z" />
    <glyph glyph-name="afii10030" unicode="&#x41c;" 
d="M878 -4h-131l-71 445l-120 -445h-112l-120 445l-70 -445h-132l129 735h113l136 -499l137 499h113z" />
    <glyph glyph-name="afii10031" unicode="&#xf7ae;" 
d="M785 -4h-129v318h-312v-318h-129v735h129v-295h312v295h129v-735z" />
    <glyph glyph-name="afii10031" unicode="&#x41d;" 
d="M785 -4h-129v318h-312v-318h-129v735h129v-295h312v295h129v-735z" />
    <glyph glyph-name="afii10032" unicode="&#xf7af;" 
d="M851 362q0 -170 -90 -272q-95 -108 -262 -108t-261 108q-89 101 -89 272q0 172 89 274q93 110 261 110q167 0 262 -110q90 -105 90 -274zM714 362q0 109 -50 182q-59 80 -165 80q-107 0 -164 -80q-49 -70 -49 -182t50 -180q57 -78 163 -78q105 0 163 79q52 70 52 179z
" />
    <glyph glyph-name="afii10032" unicode="&#x41e;" 
d="M851 362q0 -170 -90 -272q-95 -108 -262 -108t-261 108q-89 101 -89 272q0 172 89 274q93 110 261 110q167 0 262 -110q90 -105 90 -274zM714 362q0 109 -50 182q-59 80 -165 80q-107 0 -164 -80q-49 -70 -49 -182t50 -180q57 -78 163 -78q105 0 163 79q52 70 52 179z
" />
    <glyph glyph-name="afii10033" unicode="&#xf7b0;" 
d="M785 -4h-129v612h-311v-612h-130v735h570v-735z" />
    <glyph glyph-name="afii10033" unicode="&#x41f;" 
d="M785 -4h-129v612h-311v-612h-130v735h570v-735z" />
    <glyph glyph-name="afii10034" unicode="&#xf7b1;" 
d="M764 491q0 -251 -325 -251h-74v-244h-129v735h199q329 0 329 -240zM631 489q0 60 -48 93q-42 27 -105 27h-113v-247h113q69 0 108 29q45 33 45 98z" />
    <glyph glyph-name="afii10034" unicode="&#x420;" 
d="M764 491q0 -251 -325 -251h-74v-244h-129v735h199q329 0 329 -240zM631 489q0 60 -48 93q-42 27 -105 27h-113v-247h113q69 0 108 29q45 33 45 98z" />
    <glyph glyph-name="afii10035" unicode="&#xf7b2;" 
d="M805 234q-31 -252 -277 -252q-166 0 -253 111q-80 99 -80 270q0 167 81 270q90 113 252 113q118 0 191 -64q72 -66 75 -183h-131q-12 64 -39 94q-34 31 -96 31q-103 0 -154 -83q-44 -69 -44 -178q0 -110 43 -177q51 -82 155 -82q117 0 145 130h132z" />
    <glyph glyph-name="afii10035" unicode="&#x421;" 
d="M805 234q-31 -252 -277 -252q-166 0 -253 111q-80 99 -80 270q0 167 81 270q90 113 252 113q118 0 191 -64q72 -66 75 -183h-131q-12 64 -39 94q-34 31 -96 31q-103 0 -154 -83q-44 -69 -44 -178q0 -110 43 -177q51 -82 155 -82q117 0 145 130h132z" />
    <glyph glyph-name="afii10036" unicode="&#xf7b3;" 
d="M795 609h-230v-613h-130v613h-230v122h590v-122z" />
    <glyph glyph-name="afii10036" unicode="&#x422;" 
d="M795 609h-230v-613h-130v613h-230v122h590v-122z" />
    <glyph glyph-name="afii10037" unicode="&#xf7b4;" 
d="M796 731l-215 -536q-42 -106 -78 -143q-53 -56 -149 -56h-140v123h143q56 0 80 65l-233 547h141l161 -377l151 377h139z" />
    <glyph glyph-name="afii10037" unicode="&#x423;" 
d="M796 731l-215 -536q-42 -106 -78 -143q-53 -56 -149 -56h-140v123h143q56 0 80 65l-233 547h141l161 -377l151 377h139z" />
    <glyph glyph-name="afii10038" unicode="&#xf7b5;" 
d="M858 375q0 -122 -88 -198q-78 -67 -205 -84v-97h-129v97q-127 16 -205 84q-88 75 -88 198t88 198q78 66 205 84v74h129v-74q127 -17 205 -84q88 -77 88 -198zM724 375q0 133 -159 163v-324q159 30 159 161zM436 213v324q-158 -31 -158 -162t158 -162z" />
    <glyph glyph-name="afii10038" unicode="&#x424;" 
d="M858 375q0 -122 -88 -198q-78 -67 -205 -84v-97h-129v97q-127 16 -205 84q-88 75 -88 198t88 198q78 66 205 84v74h129v-74q127 -17 205 -84q88 -77 88 -198zM724 375q0 133 -159 163v-324q159 30 159 161zM436 213v324q-158 -31 -158 -162t158 -162z" />
    <glyph glyph-name="afii10039" unicode="&#xf7b6;" 
d="M867 -4h-160l-208 291l-206 -291h-160l287 384l-261 351h162l178 -253l180 253h161l-261 -351z" />
    <glyph glyph-name="afii10039" unicode="&#x425;" 
d="M867 -4h-160l-208 291l-206 -291h-160l287 384l-261 351h162l178 -253l180 253h161l-261 -351z" />
    <glyph glyph-name="afii10040" unicode="&#xf7b7;" 
d="M834 -98h-137v95h-530v734h133v-608h314v608h134v-608h86v-221z" />
    <glyph glyph-name="afii10040" unicode="&#x426;" 
d="M834 -98h-137v95h-530v734h133v-608h314v608h134v-608h86v-221z" />
    <glyph glyph-name="afii10041" unicode="&#xf7b8;" 
d="M766 -4h-130v283q-93 -50 -187 -50q-93 0 -151 49q-64 52 -64 144v309h130v-297q0 -43 32 -63q27 -18 70 -18q75 0 170 58v320h130v-735z" />
    <glyph glyph-name="afii10041" unicode="&#x427;" 
d="M766 -4h-130v283q-93 -50 -187 -50q-93 0 -151 49q-64 52 -64 144v309h130v-297q0 -43 32 -63q27 -18 70 -18q75 0 170 58v320h130v-735z" />
    <glyph glyph-name="afii10042" unicode="&#xf7b9;" 
d="M858 -4h-716v735h121v-611h176v611h122v-611h175v611h122v-735z" />
    <glyph glyph-name="afii10042" unicode="&#x428;" 
d="M858 -4h-716v735h121v-611h176v611h122v-611h175v611h122v-735z" />
    <glyph glyph-name="afii10043" unicode="&#xf7ba;" 
d="M881 -100h-127v97h-634v734h121v-608h176v608h122v-608h178v608h121v-608h43v-223z" />
    <glyph glyph-name="afii10043" unicode="&#x429;" 
d="M881 -100h-127v97h-634v734h121v-608h176v608h122v-608h178v608h121v-608h43v-223z" />
    <glyph glyph-name="afii10044" unicode="&#xf7bb;" 
d="M860 212q0 -104 -81 -162q-72 -54 -179 -54h-292v611h-168v124h300v-284h134q125 0 201 -52q85 -62 85 -183zM723 215q0 109 -157 109h-126v-204h126q157 0 157 95z" />
    <glyph glyph-name="afii10044" unicode="&#x42a;" 
d="M860 212q0 -104 -81 -162q-72 -54 -179 -54h-292v611h-168v124h300v-284h134q125 0 201 -52q85 -62 85 -183zM723 215q0 109 -157 109h-126v-204h126q157 0 157 95z" />
    <glyph glyph-name="afii10045" unicode="&#xf7bc;" 
d="M861 -4h-124v735h124v-735zM670 217q0 -103 -75 -163q-70 -58 -174 -58h-282v735h130v-274h126q123 0 196 -56q79 -64 79 -184zM537 220q0 115 -148 115h-120v-216h120q59 0 98 21q50 26 50 80z" />
    <glyph glyph-name="afii10045" unicode="&#x42b;" 
d="M861 -4h-124v735h124v-735zM670 217q0 -103 -75 -163q-70 -58 -174 -58h-282v735h130v-274h126q123 0 196 -56q79 -64 79 -184zM537 220q0 115 -148 115h-120v-216h120q59 0 98 21q50 26 50 80z" />
    <glyph glyph-name="afii10046" unicode="&#xf7bd;" 
d="M766 217q0 -102 -76 -163q-70 -58 -174 -58h-282v735h130v-274h126q123 0 196 -56q80 -63 80 -184zM632 220q0 115 -148 115h-120v-216h120q59 0 98 21q50 26 50 80z" />
    <glyph glyph-name="afii10046" unicode="&#x42c;" 
d="M766 217q0 -102 -76 -163q-70 -58 -174 -58h-282v735h130v-274h126q123 0 196 -56q80 -63 80 -184zM632 220q0 115 -148 115h-120v-216h120q59 0 98 21q50 26 50 80z" />
    <glyph glyph-name="afii10047" unicode="&#xf7be;" 
d="M805 363q0 -168 -81 -270q-90 -111 -252 -111q-116 0 -186 58q-75 60 -90 172h133q25 -104 143 -104q172 0 194 210h-384v121h379q-36 182 -185 182q-59 0 -91 -19q-37 -23 -47 -79h-132q3 109 84 169q72 54 186 54q160 0 249 -114q80 -104 80 -269z" />
    <glyph glyph-name="afii10047" unicode="&#x42d;" 
d="M805 363q0 -168 -81 -270q-90 -111 -252 -111q-116 0 -186 58q-75 60 -90 172h133q25 -104 143 -104q172 0 194 210h-384v121h379q-36 182 -185 182q-59 0 -91 -19q-37 -23 -47 -79h-132q3 109 84 169q72 54 186 54q160 0 249 -114q80 -104 80 -269z" />
    <glyph glyph-name="afii10048" unicode="&#xf7bf;" 
d="M906 362q0 -161 -74 -264q-83 -116 -238 -116q-144 0 -224 98q-74 87 -84 234h-69v-318h-123v737h123v-290h72q17 136 91 216q81 87 214 87q154 0 238 -119q74 -106 74 -265zM776 362q0 102 -39 174q-48 87 -143 87q-96 0 -144 -87q-40 -71 -40 -174q0 -104 40 -172
q48 -85 144 -85q93 0 142 86q40 71 40 171z" />
    <glyph glyph-name="afii10048" unicode="&#x42e;" 
d="M906 362q0 -161 -74 -264q-83 -116 -238 -116q-144 0 -224 98q-74 87 -84 234h-69v-318h-123v737h123v-290h72q17 136 91 216q81 87 214 87q154 0 238 -119q74 -106 74 -265zM776 362q0 102 -39 174q-48 87 -143 87q-96 0 -144 -87q-40 -71 -40 -174q0 -104 40 -172
q48 -85 144 -85q93 0 142 86q40 71 40 171z" />
    <glyph glyph-name="afii10049" unicode="&#xf7c0;" 
d="M773 -4h-133v316h-108l-159 -316h-145l169 332q-148 54 -148 184q0 219 264 219h260v-735zM640 436v171h-135q-48 0 -80 -17q-40 -22 -40 -67q0 -43 39 -67q31 -20 78 -20h138z" />
    <glyph glyph-name="afii10049" unicode="&#x42f;" 
d="M773 -4h-133v316h-108l-159 -316h-145l169 332q-148 54 -148 184q0 219 264 219h260v-735zM640 436v171h-135q-48 0 -80 -17q-40 -22 -40 -67q0 -43 39 -67q31 -20 78 -20h138z" />
    <glyph glyph-name="afii10065" unicode="&#xf7c1;" 
d="M719 -5h-129v40q-42 -53 -121 -53t-133 48q-55 46 -55 125q0 99 83 145q68 37 174 37h46q0 39 -18 57q-21 16 -60 16q-45 0 -62 -14q-18 -15 -22 -59h-126q9 90 64 138q54 48 147 48q92 0 145 -44q55 -49 55 -138v-209q0 -63 12 -137zM585 224h-46q-133 0 -133 -69
q0 -28 22 -43q20 -16 51 -16q100 0 106 128z" />
    <glyph glyph-name="afii10065" unicode="&#x430;" 
d="M719 -5h-129v40q-42 -53 -121 -53t-133 48q-55 46 -55 125q0 99 83 145q68 37 174 37h46q0 39 -18 57q-21 16 -60 16q-45 0 -62 -14q-18 -15 -22 -59h-126q9 90 64 138q54 48 147 48q92 0 145 -44q55 -49 55 -138v-209q0 -63 12 -137zM585 224h-46q-133 0 -133 -69
q0 -28 22 -43q20 -16 51 -16q100 0 106 128z" />
    <glyph glyph-name="afii10066" unicode="&#xf7c2;" 
d="M745 664q-43 -50 -90 -70q-46 -20 -115 -20q-55 0 -97 -57q24 6 48 6q111 0 175 -81q60 -75 60 -187q0 -119 -56 -192q-63 -81 -176 -81q-128 0 -187 98q-51 81 -51 214q0 191 90 302q49 58 107 80q36 13 130 19q29 2 64 43zM594 250q0 58 -21 100q-27 53 -80 53
q-52 0 -81 -50q-25 -41 -25 -97q0 -65 22 -103q26 -50 85 -50q100 0 100 147z" />
    <glyph glyph-name="afii10066" unicode="&#x431;" 
d="M745 664q-43 -50 -90 -70q-46 -20 -115 -20q-55 0 -97 -57q24 6 48 6q111 0 175 -81q60 -75 60 -187q0 -119 -56 -192q-63 -81 -176 -81q-128 0 -187 98q-51 81 -51 214q0 191 90 302q49 58 107 80q36 13 130 19q29 2 64 43zM594 250q0 58 -21 100q-27 53 -80 53
q-52 0 -81 -50q-25 -41 -25 -97q0 -65 22 -103q26 -50 85 -50q100 0 100 147z" />
    <glyph glyph-name="afii10067" unicode="&#xf7c3;" 
d="M697 159q0 -75 -51 -119q-52 -43 -128 -43h-215v513h206q70 0 119 -41q52 -44 52 -113q0 -53 -39 -89q56 -42 56 -108zM552 350q0 43 -55 43h-71v-80h73q53 0 53 37zM570 164q0 44 -63 44h-81v-93h84q60 0 60 49z" />
    <glyph glyph-name="afii10067" unicode="&#x432;" 
d="M697 159q0 -75 -51 -119q-52 -43 -128 -43h-215v513h206q70 0 119 -41q52 -44 52 -113q0 -53 -39 -89q56 -42 56 -108zM552 350q0 43 -55 43h-71v-80h73q53 0 53 37zM570 164q0 44 -63 44h-81v-93h84q60 0 60 49z" />
    <glyph glyph-name="afii10068" unicode="&#xf7c4;" 
d="M689 393h-258v-396h-120v513h378v-117z" />
    <glyph glyph-name="afii10068" unicode="&#x433;" 
d="M689 393h-258v-396h-120v513h378v-117z" />
    <glyph glyph-name="afii10069" unicode="&#xf7c5;" 
d="M746 -73h-122v72h-248v-72h-122v186h65l76 397h290v-397h61v-186zM564 113v283h-70l-54 -283h124z" />
    <glyph glyph-name="afii10069" unicode="&#x434;" 
d="M746 -73h-122v72h-248v-72h-122v186h65l76 397h290v-397h61v-186zM564 113v283h-70l-54 -283h124z" />
    <glyph glyph-name="afii10070" unicode="&#xf7c6;" 
d="M746 237l-1 -11h-364q23 -129 132 -129q83 0 105 78h127q-18 -90 -81 -141q-66 -51 -157 -51q-119 0 -187 77q-66 74 -66 194q0 113 65 190q69 81 180 81q121 0 188 -85q59 -77 59 -203zM608 339q-13 32 -42 53q-32 19 -66 19q-77 0 -107 -72h215z" />
    <glyph glyph-name="afii10070" unicode="&#x435;" 
d="M746 237l-1 -11h-364q23 -129 132 -129q83 0 105 78h127q-18 -90 -81 -141q-66 -51 -157 -51q-119 0 -187 77q-66 74 -66 194q0 113 65 190q69 81 180 81q121 0 188 -85q59 -77 59 -203zM608 339q-13 32 -42 53q-32 19 -66 19q-77 0 -107 -72h215z" />
    <glyph glyph-name="afii10072" unicode="&#xf7c8;" 
d="M812 -3h-135l-117 212v-212h-119v212l-117 -212h-135l152 263q-105 93 -123 250h119q13 -123 104 -171v171h119v-171q89 48 104 171h119q-21 -157 -123 -250z" />
    <glyph glyph-name="afii10072" unicode="&#x436;" 
d="M812 -3h-135l-117 212v-212h-119v212l-117 -212h-135l152 263q-105 93 -123 250h119q13 -123 104 -171v171h119v-171q89 48 104 171h119q-21 -157 -123 -250z" />
    <glyph glyph-name="afii10073" unicode="&#xf7c9;" 
d="M680 155q0 -84 -50 -128t-134 -44q-164 0 -176 175h122q0 -57 57 -57q55 0 55 58q0 54 -51 54q-12 0 -58 -8v115q43 -7 58 -7q45 0 45 50q0 44 -50 44q-46 0 -52 -46h-118q4 75 47 121q43 43 118 43q77 0 129 -44q52 -46 52 -121q0 -55 -40 -95q46 -46 46 -110z" />
    <glyph glyph-name="afii10073" unicode="&#x437;" 
d="M680 155q0 -84 -50 -128t-134 -44q-164 0 -176 175h122q0 -57 57 -57q55 0 55 58q0 54 -51 54q-12 0 -58 -8v115q43 -7 58 -7q45 0 45 50q0 44 -50 44q-46 0 -52 -46h-118q4 75 47 121q43 43 118 43q77 0 129 -44q52 -46 52 -121q0 -55 -40 -95q46 -46 46 -110z" />
    <glyph glyph-name="afii10074" unicode="&#xf7ca;" 
d="M706 -3h-125v260l-162 -197v-63h-125v513h125v-274l162 196v78h125v-513z" />
    <glyph glyph-name="afii10074" unicode="&#x438;" 
d="M706 -3h-125v260l-162 -197v-63h-125v513h125v-274l162 196v78h125v-513z" />
    <glyph glyph-name="afii10075" unicode="&#xf7cb;" 
d="M686 662q-84 -96 -191 -96q-117 0 -181 96h115q24 -31 69 -31q40 0 67 31h121zM706 -3h-125v260l-162 -197v-63h-125v513h125v-274l162 196v78h125v-513z" />
    <glyph glyph-name="afii10075" unicode="&#x439;" 
d="M686 662q-84 -96 -191 -96q-117 0 -181 96h115q24 -31 69 -31q40 0 67 31h121zM706 -3h-125v260l-162 -197v-63h-125v513h125v-274l162 196v78h125v-513z" />
    <glyph glyph-name="afii10076" unicode="&#xf7cc;" 
d="M702 -3h-136l-111 223l-33 -4v-219h-124v513h124v-177q71 6 101 59q20 33 33 118h122q-30 -187 -108 -247z" />
    <glyph glyph-name="afii10076" unicode="&#x43a;" 
d="M702 -3h-136l-111 223l-33 -4v-219h-124v513h124v-177q71 6 101 59q20 33 33 118h122q-30 -187 -108 -247z" />
    <glyph glyph-name="afii10077" unicode="&#xf7cd;" 
d="M734 -3h-125v396h-69l-46 -269q-11 -59 -48 -92q-38 -35 -97 -35h-83v118h77q25 0 31 29l63 366h297v-513z" />
    <glyph glyph-name="afii10077" unicode="&#x43b;" 
d="M734 -3h-125v396h-69l-46 -269q-11 -59 -48 -92q-38 -35 -97 -35h-83v118h77q25 0 31 29l63 366h297v-513z" />
    <glyph glyph-name="afii10078" unicode="&#xf7ce;" 
d="M748 -3h-115v204l-82 -204h-107l-77 200v-200h-115v513h108l139 -348l140 348h109v-513z" />
    <glyph glyph-name="afii10078" unicode="&#x43c;" 
d="M748 -3h-115v204l-82 -204h-107l-77 200v-200h-115v513h108l139 -348l140 348h109v-513z" />
    <glyph glyph-name="afii10079" unicode="&#xf7cf;" 
d="M702 -3h-124v209h-157v-209h-123v513h123v-187h157v187h124v-513z" />
    <glyph glyph-name="afii10079" unicode="&#x43d;" 
d="M702 -3h-124v209h-157v-209h-123v513h123v-187h157v187h124v-513z" />
    <glyph glyph-name="afii10080" unicode="&#xf7d0;" 
d="M756 254q0 -116 -70 -194q-70 -77 -185 -77q-117 0 -188 78q-69 75 -69 193t70 194q69 77 187 77q114 0 185 -77q70 -79 70 -194zM628 254q0 61 -31 106q-37 49 -96 49q-63 0 -97 -48q-32 -44 -32 -107q0 -66 31 -107q35 -48 98 -48q60 0 96 49q31 43 31 106z" />
    <glyph glyph-name="afii10080" unicode="&#x43e;" 
d="M756 254q0 -116 -70 -194q-70 -77 -185 -77q-117 0 -188 78q-69 75 -69 193t70 194q69 77 187 77q114 0 185 -77q70 -79 70 -194zM628 254q0 61 -31 106q-37 49 -96 49q-63 0 -97 -48q-32 -44 -32 -107q0 -66 31 -107q35 -48 98 -48q60 0 96 49q31 43 31 106z" />
    <glyph glyph-name="afii10081" unicode="&#xf7d1;" 
d="M708 -3h-129v396h-159v-396h-128v513h416v-513z" />
    <glyph glyph-name="afii10081" unicode="&#x43f;" 
d="M708 -3h-129v396h-159v-396h-128v513h416v-513z" />
    <glyph glyph-name="afii10082" unicode="&#xf7d2;" 
d="M747 253q0 -113 -57 -186q-62 -83 -170 -83q-71 0 -132 38v-161h-122v512q0 12 -13 139h125l4 -46q44 59 135 59q107 0 172 -84q58 -78 58 -188zM619 260q0 58 -25 102q-31 49 -87 49q-61 0 -92 -46q-27 -39 -27 -103q0 -162 127 -162q57 0 84 55q20 42 20 105z" />
    <glyph glyph-name="afii10082" unicode="&#x440;" 
d="M747 253q0 -113 -57 -186q-62 -83 -170 -83q-71 0 -132 38v-161h-122v512q0 12 -13 139h125l4 -46q44 59 135 59q107 0 172 -84q58 -78 58 -188zM619 260q0 58 -25 102q-31 49 -87 49q-61 0 -92 -46q-27 -39 -27 -103q0 -162 127 -162q57 0 84 55q20 42 20 105z" />
    <glyph glyph-name="afii10083" unicode="&#xf7d3;" 
d="M728 201q-4 -104 -60 -161q-57 -57 -160 -57q-114 0 -177 82q-59 72 -59 190q0 116 62 190q65 80 179 80q97 0 155 -58q55 -59 59 -157h-125q-6 53 -26 76q-22 22 -73 22q-50 0 -79 -53q-24 -45 -24 -99q0 -56 24 -101q28 -55 79 -55q54 0 75 24q18 20 22 77h128z" />
    <glyph glyph-name="afii10083" unicode="&#x441;" 
d="M728 201q-4 -104 -60 -161q-57 -57 -160 -57q-114 0 -177 82q-59 72 -59 190q0 116 62 190q65 80 179 80q97 0 155 -58q55 -59 59 -157h-125q-6 53 -26 76q-22 22 -73 22q-50 0 -79 -53q-24 -45 -24 -99q0 -56 24 -101q28 -55 79 -55q54 0 75 24q18 20 22 77h128z" />
    <glyph glyph-name="afii10084" unicode="&#xf7d4;" 
d="M709 393h-146v-396h-124v396h-148v117h418v-117z" />
    <glyph glyph-name="afii10084" unicode="&#x442;" 
d="M709 393h-146v-396h-124v396h-148v117h418v-117z" />
    <glyph glyph-name="afii10085" unicode="&#xf7d5;" 
d="M775 509l-277 -648h-135l70 157l-208 491h139l136 -341l141 341h134z" />
    <glyph glyph-name="afii10085" unicode="&#x443;" 
d="M775 509l-277 -648h-135l70 157l-208 491h139l136 -341l141 341h134z" />
    <glyph glyph-name="afii10086" unicode="&#xf7d6;" 
d="M844 256q0 -113 -49 -188q-58 -85 -166 -85q-33 0 -63 15v-137h-130v137q-30 -15 -64 -15q-110 0 -167 84q-48 72 -48 189q0 114 49 185q57 83 166 83q34 0 64 -15v222h130v-222q28 15 63 15q109 0 167 -82q48 -70 48 -186zM712 256q0 146 -83 146q-63 0 -63 -146
q0 -150 63 -150q83 0 83 150zM436 256q0 146 -64 146q-46 0 -67 -53q-16 -38 -16 -93q0 -150 83 -150q64 0 64 150z" />
    <glyph glyph-name="afii10086" unicode="&#x444;" 
d="M844 256q0 -113 -49 -188q-58 -85 -166 -85q-33 0 -63 15v-137h-130v137q-30 -15 -64 -15q-110 0 -167 84q-48 72 -48 189q0 114 49 185q57 83 166 83q34 0 64 -15v222h130v-222q28 15 63 15q109 0 167 -82q48 -70 48 -186zM712 256q0 146 -83 146q-63 0 -63 -146
q0 -150 63 -150q83 0 83 150zM436 256q0 146 -64 146q-46 0 -67 -53q-16 -38 -16 -93q0 -150 83 -150q64 0 64 150z" />
    <glyph glyph-name="afii10087" unicode="&#xf7d7;" 
d="M804 -4h-161l-143 181l-144 -181h-160l224 268l-204 245h159l125 -155l124 155h158l-203 -245z" />
    <glyph glyph-name="afii10087" unicode="&#x445;" 
d="M804 -4h-161l-143 181l-144 -181h-160l224 268l-204 245h159l125 -155l124 155h158l-203 -245z" />
    <glyph glyph-name="afii10088" unicode="&#xf7d8;" 
d="M735 -66h-125v64h-345v512h125v-394h166v394h125v-394h54v-182z" />
    <glyph glyph-name="afii10088" unicode="&#x446;" 
d="M735 -66h-125v64h-345v512h125v-394h166v394h125v-394h54v-182z" />
    <glyph glyph-name="afii10089" unicode="&#xf7d9;" 
d="M688 -3h-122v174q-47 -20 -100 -20q-153 0 -153 128v231h122v-199q0 -27 12 -35q12 -9 39 -9q33 0 80 31v212h122v-513z" />
    <glyph glyph-name="afii10089" unicode="&#x447;" 
d="M688 -3h-122v174q-47 -20 -100 -20q-153 0 -153 128v231h122v-199q0 -27 12 -35q12 -9 39 -9q33 0 80 31v212h122v-513z" />
    <glyph glyph-name="afii10090" unicode="&#xf7da;" 
d="M750 -3h-500v513h115v-396h78v396h114v-396h78v396h115v-513z" />
    <glyph glyph-name="afii10090" unicode="&#x448;" 
d="M750 -3h-500v513h115v-396h78v396h114v-396h78v396h115v-513z" />
    <glyph glyph-name="afii10091" unicode="&#xf7db;" 
d="M764 -70h-115v68h-413v512h116v-394h70v394h117v-394h67v394h116v-394h42v-186z" />
    <glyph glyph-name="afii10091" unicode="&#x449;" 
d="M764 -70h-115v68h-413v512h116v-394h70v394h117v-394h67v394h116v-394h42v-186z" />
    <glyph glyph-name="afii10092" unicode="&#xf7dc;" 
d="M753 159q0 -76 -58 -120q-54 -42 -130 -42h-209v396h-108v117h235v-180h65q88 0 143 -40q62 -45 62 -131zM623 161q0 52 -79 52h-61v-99h61q79 0 79 47z" />
    <glyph glyph-name="afii10092" unicode="&#x44a;" 
d="M753 159q0 -76 -58 -120q-54 -42 -130 -42h-209v396h-108v117h235v-180h65q88 0 143 -40q62 -45 62 -131zM623 161q0 52 -79 52h-61v-99h61q79 0 79 47z" />
    <glyph glyph-name="afii10093" unicode="&#xf7dd;" 
d="M770 -4h-124v513h124v-513zM604 159q0 -73 -52 -117q-51 -45 -125 -45h-197v513h123v-179h58q86 0 137 -42q56 -47 56 -130zM477 161q0 53 -70 53h-54v-100h54q70 0 70 47z" />
    <glyph glyph-name="afii10093" unicode="&#x44b;" 
d="M770 -4h-124v513h124v-513zM604 159q0 -73 -52 -117q-51 -45 -125 -45h-197v513h123v-179h58q86 0 137 -42q56 -47 56 -130zM477 161q0 53 -70 53h-54v-100h54q70 0 70 47z" />
    <glyph glyph-name="afii10094" unicode="&#xf7de;" 
d="M687 159q0 -75 -51 -118q-50 -44 -126 -44h-197v513h123v-179h58q86 0 138 -42q55 -47 55 -130zM560 161q0 33 -21 45q-16 8 -49 8h-54v-100h54q70 0 70 47z" />
    <glyph glyph-name="afii10094" unicode="&#x44c;" 
d="M687 159q0 -75 -51 -118q-50 -44 -126 -44h-197v513h123v-179h58q86 0 138 -42q55 -47 55 -130zM560 161q0 33 -21 45q-16 8 -49 8h-54v-100h54q70 0 70 47z" />
    <glyph glyph-name="afii10095" unicode="&#xf7df;" 
d="M716 254q0 -116 -57 -190q-63 -81 -176 -81q-171 0 -198 183h126q0 -64 74 -64q46 0 70 30q17 23 28 73h-244v112h241q-27 90 -95 90q-62 0 -71 -62h-119q0 87 50 133q50 47 138 47q112 0 175 -81q58 -76 58 -190z" />
    <glyph glyph-name="afii10095" unicode="&#x44d;" 
d="M716 254q0 -116 -57 -190q-63 -81 -176 -81q-171 0 -198 183h126q0 -64 74 -64q46 0 70 30q17 23 28 73h-244v112h241q-27 90 -95 90q-62 0 -71 -62h-119q0 87 50 133q50 47 138 47q112 0 175 -81q58 -76 58 -190z" />
    <glyph glyph-name="afii10096" unicode="&#xf7e0;" 
d="M795 254q0 -114 -53 -188q-59 -83 -170 -83q-95 0 -152 66q-51 57 -63 156h-33v-207h-119v511h119v-187h37q15 90 66 144q56 59 145 59q110 0 170 -83q53 -76 53 -188zM674 254q0 59 -20 101q-28 52 -82 52q-95 0 -95 -153q0 -152 95 -152q54 0 81 52q21 40 21 100z" />
    <glyph glyph-name="afii10096" unicode="&#x44e;" 
d="M795 254q0 -114 -53 -188q-59 -83 -170 -83q-95 0 -152 66q-51 57 -63 156h-33v-207h-119v511h119v-187h37q15 90 66 144q56 59 145 59q110 0 170 -83q53 -76 53 -188zM674 254q0 59 -20 101q-28 52 -82 52q-95 0 -95 -153q0 -152 95 -152q54 0 81 52q21 40 21 100z" />
    <glyph glyph-name="afii10097" unicode="&#xf7e1;" 
d="M695 -3h-121v203h-36l-100 -203h-131l110 223q-89 44 -89 129q0 161 185 161h182v-513zM574 316v77h-66q-54 0 -54 -41q0 -36 56 -36h64z" />
    <glyph glyph-name="afii10097" unicode="&#x44f;" 
d="M695 -3h-121v203h-36l-100 -203h-131l110 223q-89 44 -89 129q0 161 185 161h182v-513zM574 316v77h-66q-54 0 -54 -41q0 -36 56 -36h64z" />
    <glyph glyph-name="afii10071" unicode="&#xf7c7;" 
d="M664 575l-15 -14h-67l-15 14v72l15 15h67l15 -15v-72zM433 575l-15 -14h-68l-14 15v70l14 16h68l15 -15v-72zM746 237l-1 -11h-364q23 -129 132 -129q83 0 105 78h127q-18 -90 -81 -141q-66 -51 -157 -51q-119 0 -187 77q-66 74 -66 194q0 113 65 190q69 81 180 81
q121 0 188 -85q59 -77 59 -203zM608 339q-13 32 -42 53q-32 19 -66 19q-77 0 -107 -72h215z" />
    <glyph glyph-name="afii10071" unicode="&#x451;" 
d="M664 575l-15 -14h-67l-15 14v72l15 15h67l15 -15v-72zM433 575l-15 -14h-68l-14 15v70l14 16h68l15 -15v-72zM746 237l-1 -11h-364q23 -129 132 -129q83 0 105 78h127q-18 -90 -81 -141q-66 -51 -157 -51q-119 0 -187 77q-66 74 -66 194q0 113 65 190q69 81 180 81
q121 0 188 -85q59 -77 59 -203zM608 339q-13 32 -42 53q-32 19 -66 19q-77 0 -107 -72h215z" />
    <glyph glyph-name="uni1EBE" unicode="&#xf326;" 
 />
    <glyph glyph-name="uni1EBE" unicode="&#x1ebe;" 
 />
    <glyph glyph-name="uni1EBF" unicode="&#xf345;" 
 />
    <glyph glyph-name="uni1EBF" unicode="&#x1ebf;" 
 />
    <glyph glyph-name="uni1EC0" unicode="&#xf328;" 
 />
    <glyph glyph-name="uni1EC0" unicode="&#x1ec0;" 
 />
    <glyph glyph-name="uni1EC1" unicode="&#xf347;" 
 />
    <glyph glyph-name="uni1EC1" unicode="&#x1ec1;" 
 />
    <glyph glyph-name="CNS1.120.vert" unicode="&#x2013;" orientation="v" 
d="M665 297h-330v126h330v-126z" />
    <glyph glyph-name="CNS1.122.vert" unicode="&#x2014;" orientation="v" 
d="M950 297h-900v126h900v-126z" />
    <glyph glyph-name="quoteleft" unicode="&#x2018;" 
d="M955 752q-46 -18 -81 -65h73v-143h-153v100q0 108 123 173z" />
    <glyph glyph-name="quoteright" unicode="&#x2019;" 
d="M206 717q0 -110 -123 -173l-38 65q46 18 81 65h-73v143h153v-100z" />
    <glyph glyph-name="quotedblleft" unicode="&#x201c;" 
d="M955 752q-46 -18 -81 -65h73v-143h-153v100q0 108 123 173zM756 752q-46 -18 -81 -65h73v-143h-153v100q0 108 123 173z" />
    <glyph glyph-name="quotedblright" unicode="&#x201d;" 
d="M405 717q0 -110 -123 -173l-38 65q46 18 81 65h-73v143h153v-100zM206 717q0 -110 -123 -173l-38 65q46 18 81 65h-73v143h153v-100z" />
    <glyph glyph-name="bullet" unicode="&#x2027;" 
d="M594 268h-188v188h188v-188z" />
    <glyph glyph-name="bullet" unicode="&#x2022;" 
d="M594 268h-188v188h188v-188z" />
    <glyph glyph-name="twodotenleader" unicode="&#x2025;" 
d="M827 283h-153v153h153v-153zM326 283h-153v153h153v-153z" />
    <glyph glyph-name="ellipsis" unicode="&#x22ef;" 
d="M910 283h-153v153h153v-153zM577 283h-153v153h153v-153zM243 283h-153v153h153v-153z" />
    <glyph glyph-name="ellipsis" unicode="&#x2026;" 
d="M910 283h-153v153h153v-153zM577 283h-153v153h153v-153zM243 283h-153v153h153v-153z" />
    <glyph glyph-name="minute" unicode="&#x2032;" 
d="M632 765l-247 -57l-17 56l216 93z" />
    <glyph glyph-name="uni2035" unicode="&#x2035;" 
d="M632 764l-17 -56l-247 57l48 92z" />
    <glyph glyph-name="uni203B" unicode="&#x203b;" 
d="M577 616h-153v153h153v-153zM910 283h-153v153h153v-153zM939 718l-358 -358l357 -358l-82 -81l-357 358l-355 -356l-82 81l356 356l-357 356l81 81l357 -356l357 358zM243 283h-153v153h153v-153zM577 -50h-153v153h153v-153z" />
    <glyph glyph-name="Euro" unicode="&#x20ac;" 
d="M845 234q-33 -252 -278 -252q-141 0 -224 80q-80 72 -101 202h-87l21 62h59q-1 12 -1 37q0 36 2 54h-81l21 62h70q26 120 104 191q85 76 217 76q118 0 191 -64q72 -66 75 -183h-131q-12 64 -39 94q-34 31 -96 31q-137 0 -182 -145h356l-21 -62h-347q-4 -24 -4 -54
q0 -25 2 -37h370l-21 -62h-340q39 -160 187 -160q117 0 145 130h133z" />
    <glyph glyph-name="uni2103" unicode="&#x2103;" 
d="M922 234q-32 -252 -277 -252q-166 0 -253 111q-81 101 -81 270q0 167 82 270q90 113 252 113q118 0 191 -64q72 -66 75 -183h-132q-11 66 -40 95q-30 30 -94 30q-103 0 -154 -83q-44 -69 -44 -178q0 -110 43 -177q51 -82 155 -82q117 0 144 130h133zM346 709
q0 -55 -40 -95q-39 -39 -94 -39q-56 0 -95 39t-39 95q0 55 39 95q39 39 95 39q55 0 94 -39q40 -42 40 -95zM269 709q0 22 -17 41q-19 16 -40 16q-24 0 -40 -16q-17 -17 -17 -41t17 -40q14 -17 40 -17q23 0 40 17t17 40z" />
    <glyph glyph-name="afii61248" unicode="&#x2105;" 
d="M924 172q0 -84 -45 -135q-48 -55 -130 -55q-84 0 -130 55q-46 50 -46 135t46 138q45 53 130 53q81 0 130 -55q45 -52 45 -136zM828 172q0 43 -18 70q-22 31 -61 31t-61 -31q-17 -26 -17 -70q0 -41 18 -68q19 -31 60 -31q40 0 61 31q18 27 18 68zM888 673l-706 -690
l-70 72l706 689zM417 607h-94q-14 53 -69 53q-47 0 -72 -34q-20 -26 -20 -70q0 -45 20 -71q24 -33 72 -33q50 0 65 51h96q-25 -137 -161 -137q-95 0 -144 55q-45 51 -45 135q0 85 44 135q50 56 145 56q74 0 117 -37q42 -39 46 -103z" />
    <glyph glyph-name="uni2109" unicode="&#x2109;" 
d="M926 609h-405v-174h391v-122h-391v-317h-127v735h532v-122zM342 709q0 -56 -39 -95t-95 -39q-55 0 -94 39q-40 39 -40 95t40 95q39 39 94 39q56 0 95 -39t39 -95zM265 709q0 22 -17 41q-18 16 -40 16q-24 0 -40 -16q-17 -17 -17 -41q0 -25 17 -41q15 -16 40 -16
q24 0 40 16q17 17 17 41z" />
    <glyph glyph-name="afii61352" unicode="&#xf81c;" 
d="M976 0h-122v122h122v-122zM832 253q0 -101 -43 -178q-52 -92 -148 -92t-147 91q-43 74 -43 179q0 103 43 179q51 93 147 93q93 0 147 -93q44 -79 44 -179zM414 -4h-113l-162 424v-424h-115v735h114l162 -422v422h114v-735zM716 253q0 50 -14 94q-21 61 -61 61
q-41 0 -61 -59q-13 -40 -13 -96t13 -95q19 -58 61 -58q40 0 61 59q14 44 14 94z" />
    <glyph glyph-name="afii61352" unicode="&#x2116;" 
d="M976 0h-122v122h122v-122zM832 253q0 -101 -43 -178q-52 -92 -148 -92t-147 91q-43 74 -43 179q0 103 43 179q51 93 147 93q93 0 147 -93q44 -79 44 -179zM414 -4h-113l-162 424v-424h-115v735h114l162 -422v422h114v-735zM716 253q0 50 -14 94q-21 61 -61 61
q-41 0 -61 -59q-13 -40 -13 -96t13 -95q19 -58 61 -58q40 0 61 59q14 44 14 94z" />
    <glyph glyph-name="uni2121" unicode="&#xf81d;" 
d="M944 -4h-110v735h110v-735zM767 166q-18 -92 -60 -134q-49 -49 -136 -49q-100 0 -147 92q-39 72 -39 180q0 102 42 177q51 93 146 93q101 0 151 -94q38 -73 38 -185v-31h-260q2 -43 19 -75q21 -42 59 -42q55 0 70 68h117zM455 620h-143v-624h-114v624h-142v111h399v-111z
M641 330q-4 30 -20 53q-19 27 -47 27q-26 0 -46 -28q-17 -25 -20 -52h133z" />
    <glyph glyph-name="uni2121" unicode="&#x2121;" 
d="M944 -4h-110v735h110v-735zM767 166q-18 -92 -60 -134q-49 -49 -136 -49q-100 0 -147 92q-39 72 -39 180q0 102 42 177q51 93 146 93q101 0 151 -94q38 -73 38 -185v-31h-260q2 -43 19 -75q21 -42 59 -42q55 0 70 68h117zM455 620h-143v-624h-114v624h-142v111h399v-111z
M641 330q-4 30 -20 53q-19 27 -47 27q-26 0 -46 -28q-17 -25 -20 -52h133z" />
    <glyph glyph-name="trademark" unicode="&#x2122;" horiz-adv-x="840" 
d="M810 316h-69v271l-118 -271h-64l-117 271v-271h-69v408h80l138 -318l139 318h80v-408zM355 661h-144v-345h-68v345h-128v63h340v-63z" />
    <glyph glyph-name="uni2160" unicode="&#x2160;" 
d="M565 -4h-130v735h130v-735z" />
    <glyph glyph-name="uni2161" unicode="&#x2161;" 
d="M714 -4h-130v735h130v-735zM417 -4h-130v735h130v-735z" />
    <glyph glyph-name="uni2162" unicode="&#x2162;" 
d="M823 -4h-130v735h130v-735zM565 -4h-130v735h130v-735zM307 -4h-130v735h130v-735z" />
    <glyph glyph-name="uni2163" unicode="&#x2163;" 
d="M924 731l-254 -735h-109l-255 735h135l174 -535l175 535h134zM237 -4h-128v735h128v-735z" />
    <glyph glyph-name="uni2164" unicode="&#x2164;" 
d="M844 731l-283 -735h-121l-284 735h142l202 -538l203 538h141z" />
    <glyph glyph-name="uni2165" unicode="&#x2165;" 
d="M891 -4h-128v735h128v-735zM694 731l-255 -735h-109l-254 735h134l175 -535l174 535h135z" />
    <glyph glyph-name="uni2166" unicode="&#x2166;" 
d="M932 -4h-119v735h119v-735zM754 -4h-117v735h117v-735zM581 731l-218 -735h-99l-217 735h125l142 -515l140 515h127z" />
    <glyph glyph-name="uni2167" unicode="&#x2167;" 
d="M954 -4h-104v735h104v-735zM799 -4h-104v735h104v-735zM645 -4h-104v735h104v-735zM494 731l-190 -735h-87l-188 735h119l114 -493l113 493h119z" />
    <glyph glyph-name="uni2168" unicode="&#x2168;" 
d="M942 -4h-152l-186 286l-185 -286h-152l261 384l-237 351h153l160 -249l161 249h152l-237 -351zM219 -4h-128v735h128v-735z" />
    <glyph glyph-name="uni2169" unicode="&#x2169;" 
d="M868 -4h-161l-207 291l-206 -291h-161l287 384l-260 351h161l179 -253l180 253h160l-260 -351z" />
    <glyph glyph-name="uni2170" unicode="&#xf6c5;" 
d="M562 605h-124v126h124v-126zM562 -4h-124v513h124v-513z" />
    <glyph glyph-name="uni2170" unicode="&#x2170;" 
d="M562 605h-124v126h124v-126zM562 -4h-124v513h124v-513z" />
    <glyph glyph-name="uni2171" unicode="&#xf6c6;" 
d="M705 605h-124v126h124v-126zM420 605h-125v126h125v-126zM705 -4h-124v513h124v-513zM420 -4h-125v513h125v-513z" />
    <glyph glyph-name="uni2171" unicode="&#x2171;" 
d="M705 605h-124v126h124v-126zM420 605h-125v126h125v-126zM705 -4h-124v513h124v-513zM420 -4h-125v513h125v-513z" />
    <glyph glyph-name="uni2172" unicode="&#xf6c7;" 
d="M819 605h-124v126h124v-126zM562 605h-124v126h124v-126zM819 -4h-124v513h124v-513zM306 605h-125v126h125v-126zM562 -4h-124v513h124v-513zM306 -4h-125v513h125v-513z" />
    <glyph glyph-name="uni2172" unicode="&#x2172;" 
d="M819 605h-124v126h124v-126zM562 605h-124v126h124v-126zM819 -4h-124v513h124v-513zM306 605h-125v126h125v-126zM562 -4h-124v513h124v-513zM306 -4h-125v513h125v-513z" />
    <glyph glyph-name="uni2173" unicode="&#xf6c8;" 
d="M262 605h-124v126h124v-126zM862 510l-203 -513h-110l-202 513h132l126 -343l124 343h133zM262 -4h-124v513h124v-513z" />
    <glyph glyph-name="uni2173" unicode="&#x2173;" 
d="M262 605h-124v126h124v-126zM862 510l-203 -513h-110l-202 513h132l126 -343l124 343h133zM262 -4h-124v513h124v-513z" />
    <glyph glyph-name="uni2174" unicode="&#xf6c9;" 
d="M775 509l-217 -513h-117l-216 513h135l140 -343l138 343h137z" />
    <glyph glyph-name="uni2174" unicode="&#x2174;" 
d="M775 509l-217 -513h-117l-216 513h135l140 -343l138 343h137z" />
    <glyph glyph-name="uni2175" unicode="&#xf6ca;" 
d="M862 605h-124v126h124v-126zM862 -4h-124v513h124v-513zM653 510l-203 -513h-110l-202 513h132l126 -343l124 343h133z" />
    <glyph glyph-name="uni2175" unicode="&#x2175;" 
d="M862 605h-124v126h124v-126zM862 -4h-124v513h124v-513zM653 510l-203 -513h-110l-202 513h132l126 -343l124 343h133z" />
    <glyph glyph-name="uni2176" unicode="&#xf6cb;" 
d="M927 605h-124v126h124v-126zM724 605h-125v126h125v-126zM927 -4h-124v513h124v-513zM724 -4h-125v513h125v-513zM551 507l-187 -507h-103l-188 507h129l110 -333l113 333h126z" />
    <glyph glyph-name="uni2176" unicode="&#x2176;" 
d="M927 605h-124v126h124v-126zM724 605h-125v126h125v-126zM927 -4h-124v513h124v-513zM724 -4h-125v513h125v-513zM551 507l-187 -507h-103l-188 507h129l110 -333l113 333h126z" />
    <glyph glyph-name="uni2177" unicode="&#xf6cc;" 
d="M960 605h-116v126h116v-126zM785 605h-116v126h116v-126zM611 605h-116v126h116v-126zM960 -4h-116v513h116v-513zM785 -4h-116v513h116v-513zM611 -4h-116v513h116v-513zM458 510l-162 -513h-93l-163 513h123l86 -313l89 313h120z" />
    <glyph glyph-name="uni2177" unicode="&#x2177;" 
d="M960 605h-116v126h116v-126zM785 605h-116v126h116v-126zM611 605h-116v126h116v-126zM960 -4h-116v513h116v-513zM785 -4h-116v513h116v-513zM611 -4h-116v513h116v-513zM458 510l-162 -513h-93l-163 513h123l86 -313l89 313h120z" />
    <glyph glyph-name="uni2178" unicode="&#xf6cd;" 
d="M881 -3h-152l-125 175l-126 -175h-151l201 268l-183 245h151l108 -149l108 149h149l-182 -245zM243 605h-124v126h124v-126zM243 -4h-124v513h124v-513z" />
    <glyph glyph-name="uni2178" unicode="&#x2178;" 
d="M881 -3h-152l-125 175l-126 -175h-151l201 268l-183 245h151l108 -149l108 149h149l-182 -245zM243 605h-124v126h124v-126zM243 -4h-124v513h124v-513z" />
    <glyph glyph-name="uni2179" unicode="&#xf6ce;" 
d="M804 -4h-161l-143 181l-144 -181h-160l224 268l-204 245h159l125 -155l124 155h158l-203 -245z" />
    <glyph glyph-name="uni2179" unicode="&#x2179;" 
d="M804 -4h-161l-143 181l-144 -181h-160l224 268l-204 245h159l125 -155l124 155h158l-203 -245z" />
    <glyph glyph-name="arrowleft" unicode="&#x2190;" 
d="M1000 297h-697l95 -110l-86 -72l-258 245l258 245l86 -72l-95 -110h697v-126z" />
    <glyph glyph-name="arrowup" unicode="&#x2191;" 
d="M745 548l-72 -86l-110 95v-697h-126v697l-110 -95l-72 86l245 258z" />
    <glyph glyph-name="arrowright" unicode="&#x2192;" 
d="M946 360l-258 -245l-86 72l95 110h-697v126h697l-95 110l86 72z" />
    <glyph glyph-name="arrowdown" unicode="&#x2193;" 
d="M745 172l-245 -258l-245 258l72 86l110 -95v697h126v-697l110 95z" />
    <glyph glyph-name="uni2196" unicode="&#x2196;" 
d="M956 -7l-89 -89l-692 692l-10 -146l-112 10l-9 356l356 -9l9 -112l-145 -10z" />
    <glyph glyph-name="uni2197" unicode="&#x2197;" 
d="M956 816l-9 -356l-112 -10l-10 146l-692 -692l-89 89l692 692l-145 10l9 112z" />
    <glyph glyph-name="uni2198" unicode="&#x2198;" 
d="M956 -96l-356 9l-9 112l145 10l-692 692l89 89l692 -692l10 145l112 -10z" />
    <glyph glyph-name="uni2199" unicode="&#x2199;" 
d="M956 727l-692 -692l145 -10l-9 -112l-356 -9l9 355l112 10l10 -145l692 692z" />
    <glyph glyph-name="uni21B8" unicode="&#xf7e3;" 
d="M958 689h-916v126h916v-126zM865 0l-89 -89l-510 504l-10 -146l-112 10l-9 356l355 -10l10 -111l-145 -10z" />
    <glyph glyph-name="uni21B8" unicode="&#x21b8;" 
d="M958 689h-916v126h916v-126zM865 0l-89 -89l-510 504l-10 -146l-112 10l-9 356l355 -10l10 -111l-145 -10z" />
    <glyph glyph-name="uni21B9" unicode="&#xf7e4;" 
d="M981 515h-614l95 -110l-86 -72l-231 220v-197h-126v445h126v-197l231 219l86 -72l-95 -110h614v-126zM981 -81h-126v197l-231 -219l-86 72l95 110h-614v126h614l-95 110l86 72l231 -220v197h126v-445z" />
    <glyph glyph-name="uni21B9" unicode="&#x21b9;" 
d="M981 515h-614l95 -110l-86 -72l-231 220v-197h-126v445h126v-197l231 219l86 -72l-95 -110h614v-126zM981 -81h-126v197l-231 -219l-86 72l95 110h-614v126h614l-95 110l86 72l231 -220v197h126v-445z" />
    <glyph glyph-name="uni21E7" unicode="&#xf7e2;" 
d="M849 436h-191v-529h-315v529h-191l349 387zM681 511l-180 200l-180 -200h95v-530h169v530h96z" />
    <glyph glyph-name="uni21E7" unicode="&#x21e7;" 
d="M849 436h-191v-529h-315v529h-191l349 387zM681 511l-180 200l-180 -200h95v-530h169v530h96z" />
    <glyph glyph-name="uni2215" unicode="&#xff0f;" 
d="M722 765l-334 -853l-110 42l334 853z" />
    <glyph glyph-name="uni2215" unicode="&#x2215;" 
d="M722 765l-334 -853l-110 42l334 853z" />
    <glyph glyph-name="radical" unicode="&#x221a;" 
d="M998 734h-476l-250 -830l-146 293l-58 -45l-66 105l192 147l62 -126l175 582h567v-126z" />
    <glyph glyph-name="infinity" unicode="&#x221e;" 
d="M948 353q0 -84 -59 -137q-59 -52 -144 -52q-62 0 -131 39q-38 21 -114 80q-78 -59 -114 -80q-70 -39 -131 -39q-86 0 -144 52q-59 52 -59 137t59 143q59 57 144 57q95 0 245 -117q150 117 245 117q84 0 144 -57q59 -59 59 -143zM822 353q0 34 -22 59q-21 24 -55 24
q-42 0 -146 -77q103 -78 146 -78q35 0 55 19q22 20 22 53zM401 359q-104 77 -146 77q-34 0 -55 -24q-22 -23 -22 -59q0 -34 22 -53q20 -19 55 -19q41 0 146 78z" />
    <glyph glyph-name="orthogonal" unicode="&#x221f;" 
d="M837 0h-674v732h126v-606h548v-126z" />
    <glyph glyph-name="angle" unicode="&#x2220;" 
d="M884 -1h-768l598 733h161l-495 -607h504v-126z" />
    <glyph glyph-name="uni2223" unicode="&#x2223;" 
d="M563 -140h-126v1000h126v-1000z" />
    <glyph glyph-name="uni2225" unicode="&#x2225;" 
d="M674 -140h-126v1000h126v-1000zM452 -140h-126v1000h126v-1000z" />
    <glyph glyph-name="intersection" unicode="&#x2229;" 
d="M785 0h-125v441q0 165 -159 165q-158 0 -158 -165v-441h-127v434q0 140 73 219t212 79q137 0 212 -81q72 -78 72 -217v-434z" />
    <glyph glyph-name="union" unicode="&#x222a;" 
d="M784 297q0 -138 -72 -216q-75 -81 -211 -81q-140 0 -212 79q-73 77 -73 218v435h126v-441q0 -165 159 -165t159 165v441h124v-435z" />
    <glyph glyph-name="integral" unicode="&#x222b;" 
d="M669 662l-124 -15q-8 53 -32 53q-17 0 -17 -34q0 -63 38 -197q29 -103 58 -203q36 -129 36 -191q0 -75 -30 -123q-36 -56 -107 -56q-112 0 -160 161l124 15q0 -53 33 -53q16 0 16 32q0 54 -36 185l-58 201q-38 134 -38 206q0 77 30 123q34 57 107 57q112 0 160 -161z" />
    <glyph glyph-name="uni222E" unicode="&#x222e;" 
d="M745 361q0 -67 -33 -124q-35 -58 -91 -89q7 -46 7 -73q0 -75 -30 -123q-36 -56 -107 -56q-112 0 -160 161l124 15q0 -53 33 -53q16 0 16 32q0 20 -8 65q-101 0 -170 72q-71 71 -71 173q0 66 33 123q32 55 90 89q-6 36 -6 70q0 75 30 123q34 57 107 57q112 0 160 -161
l-124 -15q-8 53 -32 53q-17 0 -17 -34q0 -35 5 -60q101 0 173 -72q71 -73 71 -173zM653 361q0 56 -37 99q-40 43 -94 52q2 -6 70 -246l6 -22q55 46 55 117zM475 210q-3 8 -7 26l-68 239q-52 -45 -52 -114q0 -57 36 -99q37 -43 91 -52z" />
    <glyph glyph-name="therefore" unicode="&#x2234;" 
d="M583 529h-165v165h165v-165zM832 18h-165v165h165v-165zM333 18h-165v165h165v-165z" />
    <glyph glyph-name="uni2235" unicode="&#x2235;" 
d="M832 529h-165v165h165v-165zM333 529h-165v165h165v-165zM583 18h-165v165h165v-165z" />
    <glyph glyph-name="similar" unicode="&#xff5e;" 
d="M881 310q-117 -87 -199 -87q-71 0 -143 39q-38 24 -112 72q-63 39 -110 39q-39 0 -107 -47q-58 -40 -91 -77v163q115 86 198 86q71 0 145 -39l114 -72q60 -39 106 -39q53 0 199 125v-163z" />
    <glyph glyph-name="similar" unicode="&#x223c;" 
d="M881 310q-117 -87 -199 -87q-71 0 -143 39q-38 24 -112 72q-63 39 -110 39q-39 0 -107 -47q-58 -40 -91 -77v163q115 86 198 86q71 0 145 -39l114 -72q60 -39 106 -39q53 0 199 125v-163z" />
    <glyph glyph-name="uni2252" unicode="&#x2252;" 
d="M849 415h-698v126h698v-126zM344 593h-153v153h153v-153zM809 -18h-153v153h153v-153zM849 179h-698v126h698v-126z" />
    <glyph glyph-name="notequal" unicode="&#x2260;" 
d="M849 179h-366l-79 -168h-137l79 168h-195v126h255l51 110h-306v126h366l79 168h137l-79 -168h195v-126h-255l-51 -110h306v-126z" />
    <glyph glyph-name="equivalence" unicode="&#x2261;" 
d="M849 525h-698v126h698v-126zM849 297h-698v126h698v-126zM849 69h-698v126h698v-126z" />
    <glyph glyph-name="uni2266" unicode="&#x2266;" 
d="M819 295l-638 167v117l638 166v-125l-405 -100l405 -101v-124zM849 147h-698v118h698v-118zM849 -18h-698v118h698v-118z" />
    <glyph glyph-name="uni2267" unicode="&#x2267;" 
d="M819 462l-638 -167v124l405 101l-405 100v125l638 -166v-117zM849 147h-698v118h698v-118zM849 -18h-698v118h698v-118z" />
    <glyph glyph-name="circleplus" unicode="&#x2641;" 
d="M909 360q0 -169 -120 -289t-289 -120t-289 120t-120 289t120 289t289 120t289 -120t120 -289zM859 388q-12 131 -105 226q-95 93 -226 105v-331h331zM472 388v331q-133 -12 -226 -105q-95 -95 -105 -226h331zM859 332h-331v-331q131 10 226 105q93 93 105 226zM472 1v331
h-331q11 -133 105 -226q93 -94 226 -105z" />
    <glyph glyph-name="circleplus" unicode="&#x2295;" 
d="M909 360q0 -169 -120 -289t-289 -120t-289 120t-120 289t120 289t289 120t289 -120t120 -289zM859 388q-12 131 -105 226q-95 93 -226 105v-331h331zM472 388v331q-133 -12 -226 -105q-95 -95 -105 -226h331zM859 332h-331v-331q131 10 226 105q93 93 105 226zM472 1v331
h-331q11 -133 105 -226q93 -94 226 -105z" />
    <glyph glyph-name="uni2299" unicode="&#x2609;" 
d="M909 360q0 -169 -120 -289t-289 -120t-289 120t-120 289t120 289t289 120t289 -120t120 -289zM860 360q0 148 -106 254t-254 106t-254 -106q-106 -105 -106 -254t106 -254q105 -106 254 -106t254 106q106 106 106 254zM581 359q0 -32 -23 -57q-24 -24 -59 -24
q-33 0 -57 24q-23 23 -23 58q0 34 23 57q24 24 60 24q31 0 55 -24t24 -58z" />
    <glyph glyph-name="uni2299" unicode="&#x2299;" 
d="M909 360q0 -169 -120 -289t-289 -120t-289 120t-120 289t120 289t289 120t289 -120t120 -289zM860 360q0 148 -106 254t-254 106t-254 -106q-106 -105 -106 -254t106 -254q105 -106 254 -106t254 106q106 106 106 254zM581 359q0 -32 -23 -57q-24 -24 -59 -24
q-33 0 -57 24q-23 23 -23 58q0 34 23 57q24 24 60 24q31 0 55 -24t24 -58z" />
    <glyph glyph-name="perpendicular" unicode="&#x22a5;" 
d="M877 0h-753v126h314v606h127v-606h312v-126z" />
    <glyph glyph-name="uni22BF" unicode="&#x22bf;" 
d="M895 0h-790l790 757v-757zM768 124v331l-349 -331h349z" />
    <glyph glyph-name="uni23DA" unicode="&#xf34a;" 
 />
    <glyph glyph-name="uni23DA" unicode="&#x23da;" 
 />
    <glyph glyph-name="uni23DB" unicode="&#xf34b;" 
 />
    <glyph glyph-name="uni23DB" unicode="&#x23db;" 
 />
    <glyph glyph-name="uni2400" unicode="&#x2400;" 
d="M965 207l-10 -207h-185v31q39 5 39 48v604q0 22 -7 31q-8 6 -32 6v31h110v-31q-26 0 -32 -8q-7 -8 -7 -31v-602q0 -25 3 -33q6 -15 27 -15q43 0 61 59q7 20 19 117h14zM754 207l-10 -207h-185v31q39 0 39 48v604q0 22 -7 31q-8 6 -32 6v31h109v-31q-26 0 -32 -8
q-7 -8 -7 -31v-602q0 -48 30 -48q44 0 62 59q8 30 19 117h14zM535 720q-23 0 -26 -12q-1 -3 -1 -31v-505q0 -172 -86 -172q-90 0 -90 178v502q0 40 -39 40v31h113v-31q-35 0 -35 -40v-488q0 -137 51 -137q40 0 53 37q9 24 9 88v497q0 22 -2 30q-5 13 -25 13v31h78v-31z
M269 720q-23 0 -26 -12q-1 -3 -1 -32v-676h-20l-136 642v-561q0 -27 4 -35q6 -15 31 -15v-31h-86v31q27 0 27 55v578q0 11 -0.5 23t-0.5 13q-5 20 -22 20v31h66l114 -551v479q0 23 -3 29q-6 12 -33 12v31h86v-31z" />
    <glyph glyph-name="uni2401" unicode="&#x2401;" 
d="M863 410h-109v9h18q28 0 28 18v91h-50v11q38 0 58 12h16v-114q0 -18 39 -18v-9zM705 518q-34 -113 -120 -113q-63 0 -99 64q-32 52 -32 121q0 71 30 125q36 66 101 66q12 0 33 -6q18 -6 27 -6q13 0 28 12l24 -92l-12 -4q-30 80 -100 80q-50 0 -76 -62q-19 -47 -19 -105
q0 -64 24 -108q28 -54 87 -54q49 0 91 83zM968 166q0 -109 -70 -217l-8 -4q-3 1 -4 4q51 110 51 217t-58 228q0 1 4 4l7 -4q78 -111 78 -228zM856 4h-87v12q31 0 31 23v133h-117v-133q0 -17 5 -19q4 -4 22 -4v-12h-82v12q17 0 22 4q5 3 5 19v269q0 14 -5 17q-6 3 -22 3v12
h82v-12q-18 0 -22 -2q-5 -2 -5 -18v-124h117v124q0 20 -31 20v12h87v-12q-29 0 -29 -20v-269q0 -23 29 -23v-12zM429 685h-12q-26 40 -39 53q-27 25 -59 25q-23 0 -23 -28v-279q0 -31 70 -31v-15h-179v15q74 0 74 31v279q0 28 -28 28q-51 0 -93 -78h-12l19 93h266zM603 172
q0 -59 -26 -111q-33 -61 -87 -61q-56 0 -86 61q-23 46 -23 111t23 111q30 61 86 61q53 0 87 -61q26 -52 26 -111zM576 172q0 53 -16 98q-24 58 -70 58q-82 0 -82 -156t82 -156q46 0 70 58q16 45 16 98zM335 94q0 -40 -29 -67q-30 -27 -69 -27q-15 0 -35 8q-26 8 -35 8
q-14 0 -23 -12l-36 102l12 3q16 -35 47 -63q32 -32 68 -32q30 0 49 20q20 22 20 52q0 16 -14 38q-13 18 -29 24l-71 24q-62 21 -62 82q0 41 24 68q24 26 66 26q23 0 39 -8q21 -12 23 -12q8 0 20 12l27 -94h-8q-21 41 -38 61q-27 29 -63 29q-59 0 -59 -70q0 -31 21 -46
q11 -11 48 -22q53 -18 71 -29q36 -24 36 -75zM121 394q-58 -117 -58 -228q0 -108 51 -217l-4 -4l-8 4q-70 106 -70 217q0 117 78 228l7 4q2 0 4 -4z" />
    <glyph glyph-name="uni2402" unicode="&#x2402;" 
d="M847 442l-4 -31h-94q0 31 41 57q41 27 41 49q0 23 -35 23t-35 -23q0 -4 7 -7q8 -3 8 -8q0 -7 -11 -7q-12 0 -12 18q0 39 43 39q51 0 51 -35q0 -18 -16 -32q-6 -6 -33 -21q-34 -22 -37 -41h62q11 0 20 19h4zM705 518q-34 -113 -120 -113q-63 0 -99 64q-32 52 -32 121
q0 71 30 125q36 66 101 66q12 0 33 -6q18 -6 27 -6q13 0 28 12l24 -92l-12 -4q-30 80 -100 80q-50 0 -76 -62q-19 -47 -19 -105q0 -64 24 -108q28 -54 87 -54q49 0 91 83zM968 166q0 -109 -70 -217l-8 -4q-3 1 -4 4q51 110 51 217t-58 228q0 1 4 4l7 -4q78 -111 78 -228z
M878 4h-94v12q31 0 31 12q0 6 -3 15l-51 117l-53 -117q-4 -8 -4 -12q0 -15 33 -15v-12h-86v12q33 0 43 23l62 135l-58 131q-11 23 -39 23v12h86v-12q-27 0 -27 -12q0 -4 4 -11l47 -106l47 100q7 16 7 17q0 12 -31 12v12h78v-12q-27 0 -39 -23l-59 -118l67 -148q9 -23 39 -23
v-12zM429 685h-12q-26 40 -39 53q-27 25 -59 25q-23 0 -23 -28v-279q0 -31 70 -31v-15h-179v15q74 0 74 31v279q0 28 -28 28q-51 0 -93 -78h-12l19 93h266zM607 254h-8q-17 31 -28 48q-20 25 -46 25q-16 0 -16 -23v-261q0 -31 51 -31v-12h-126v12q48 -2 48 31v261
q0 23 -20 23q-38 0 -74 -73h-8l16 85h199zM335 94q0 -40 -29 -67q-30 -27 -69 -27q-15 0 -35 8q-26 8 -35 8q-14 0 -23 -12l-36 102l12 3q16 -35 47 -63q32 -32 68 -32q30 0 49 20q20 22 20 52q0 16 -14 38q-13 18 -29 24l-71 24q-62 21 -62 82q0 41 24 68q24 26 66 26
q23 0 39 -8q21 -12 23 -12q8 0 20 12l27 -94h-8q-21 41 -38 61q-27 29 -63 29q-59 0 -59 -70q0 -31 21 -46q11 -11 48 -22q53 -18 71 -29q36 -24 36 -75zM121 394q-58 -117 -58 -228q0 -108 51 -217l-4 -4l-8 4q-70 106 -70 217q0 117 78 228l7 4q2 0 4 -4z" />
    <glyph glyph-name="uni2403" unicode="&#x2403;" 
d="M843 445q0 -39 -51 -39q-47 0 -47 28q0 11 12 11q10 0 10 -7q0 -2 -9 -11q0 -13 34 -13q35 0 35 31q0 14 -16 24q-13 8 -25 8v3q12 0 24 8q13 10 13 24q0 23 -31 23t-31 -13q15 -6 15 -10q0 -7 -10 -7q-13 0 -13 14q0 28 43 28t43 -34q0 -14 -9 -23q-12 -10 -22 -10
q35 -9 35 -35zM705 518q-34 -113 -120 -113q-63 0 -99 64q-32 52 -32 121q0 71 30 125q36 66 101 66q12 0 33 -6q18 -6 27 -6q13 0 28 12l24 -92l-12 -4q-30 80 -100 80q-50 0 -76 -62q-19 -47 -19 -105q0 -64 24 -108q28 -54 87 -54q49 0 91 83zM968 166q0 -109 -70 -217
l-8 -4q-3 1 -4 4q51 110 51 217t-58 228q0 1 4 4l7 -4q78 -111 78 -228zM878 4h-94v12q31 0 31 12q0 6 -3 15l-51 117l-53 -117q-4 -8 -4 -12q0 -15 33 -15v-12h-86v12q33 0 43 23l62 135l-58 131q-11 23 -39 23v12h86v-12q-27 0 -27 -12q0 -4 4 -11l47 -106l47 100
q7 16 7 17q0 12 -31 12v12h78v-12q-27 0 -39 -23l-59 -118l67 -148q9 -23 39 -23v-12zM429 685h-12q-26 40 -39 53q-27 25 -59 25q-23 0 -23 -28v-279q0 -31 70 -31v-15h-179v15q74 0 74 31v279q0 28 -28 28q-51 0 -93 -78h-12l19 93h266zM607 254h-8q-17 31 -28 48
q-20 25 -46 25q-16 0 -16 -23v-261q0 -31 51 -31v-12h-126v12q48 -2 48 31v261q0 23 -20 23q-38 0 -74 -73h-8l16 85h199zM350 90l-11 -90h-221v12q37 -2 37 27v261q0 27 -37 27v12h221l8 -93h-8q-24 49 -40 64q-23 17 -73 17q-40 0 -40 -27v-116h55q27 0 27 82h12v-184h-12
l1 15q0 75 -28 75h-55v-133q0 -28 44 -28q52 0 72 16q17 11 41 63h7zM121 394q-58 -117 -58 -228q0 -108 51 -217l-4 -4l-8 4q-70 106 -70 217q0 117 78 228l7 4q2 0 4 -4z" />
    <glyph glyph-name="uni2404" unicode="&#x2404;" 
d="M844 442h-24v-19q0 -11 11 -11h5v-6h-53v6h9q15 0 15 11v19h-63v8l67 97h9v-96h24v-9zM807 451v73l-52 -73h52zM705 518q-34 -113 -120 -113q-63 0 -99 64q-32 52 -32 121q0 71 30 125q36 66 101 66q12 0 33 -6q18 -6 27 -6q13 0 28 12l24 -92l-12 -4q-30 80 -100 80
q-50 0 -76 -62q-19 -47 -19 -105q0 -64 24 -108q28 -54 87 -54q49 0 91 83zM968 166q0 -109 -70 -217l-8 -4q-3 1 -4 4q51 110 51 217t-58 228q0 1 4 4l7 -4q78 -111 78 -228zM871 254h-8q-22 41 -28 48q-20 25 -46 25q-16 0 -16 -23v-261q0 -31 51 -31v-12h-126v12
q48 -2 48 31v261q0 23 -20 23q-38 0 -74 -73h-8l16 85h199zM429 685h-12q-26 40 -39 53q-27 25 -59 25q-23 0 -23 -28v-279q0 -31 70 -31v-15h-179v15q74 0 74 31v279q0 28 -28 28q-51 0 -93 -78h-12l19 93h266zM603 172q0 -59 -26 -111q-33 -61 -87 -61q-56 0 -86 61
q-23 46 -23 111t23 111q30 61 86 61q53 0 87 -61q26 -52 26 -111zM576 172q0 53 -16 98q-24 58 -70 58q-82 0 -82 -156t82 -156q46 0 70 58q16 45 16 98zM350 90l-11 -90h-221v12q37 -2 37 27v261q0 27 -37 27v12h221l8 -93h-8q-24 49 -40 64q-23 17 -73 17q-40 0 -40 -27
v-116h55q27 0 27 82h12v-184h-12l1 15q0 75 -28 75h-55v-133q0 -28 44 -28q52 0 72 16q17 11 41 63h7zM121 394q-58 -117 -58 -228q0 -108 51 -217l-4 -4l-8 4q-70 106 -70 217q0 117 78 228l7 4q2 0 4 -4z" />
    <glyph glyph-name="uni2405" unicode="&#x2405;" 
d="M861 457q0 -47 -55 -47q-43 0 -43 27q0 12 10 12q9 0 9 -8q0 -3 -4 -5q-3 -3 -3 -6q0 -12 31 -12q37 0 37 39q0 33 -32 33q-24 0 -36 -17h-11l4 77h89l-4 -14h-77l-3 -51q18 15 41 15q17 0 32 -12q15 -14 15 -31zM705 518q-34 -113 -120 -113q-63 0 -99 64
q-32 52 -32 121q0 71 30 125q36 66 101 66q12 0 33 -6q18 -6 27 -6q13 0 28 12l24 -92l-12 -4q-30 80 -100 80q-50 0 -76 -62q-19 -47 -19 -105q0 -64 24 -108q28 -54 87 -54q49 0 91 83zM968 166q0 -109 -70 -217l-8 -4q-3 1 -4 4q51 110 51 217t-58 228q0 1 4 4l7 -4
q78 -111 78 -228zM870 172q0 -43 -15 -85q-18 -48 -49 -72q12 -35 33 -35q9 0 23 12l4 -4q-19 -31 -39 -31q-24 0 -39 49q-15 -6 -31 -6q-56 0 -86 61q-24 48 -24 111t24 111q31 61 86 61q53 0 87 -61q26 -52 26 -111zM843 172q0 55 -17 98q-23 58 -69 58q-82 0 -82 -156
q0 -89 27 -128q0 61 39 61q32 0 59 -73q43 40 43 140zM783 21q-23 73 -42 73q-29 0 -29 -45q0 -14 1 -18q18 -15 44 -15q16 0 26 5zM429 685h-12q-26 40 -39 53q-27 25 -59 25q-23 0 -23 -28v-279q0 -31 70 -31v-15h-179v15q74 0 74 31v279q0 28 -28 28q-51 0 -93 -78h-12
l19 93h266zM604 330q-14 0 -17 -6t-3 -21v-303h-15l-145 287v-252q0 -23 28 -23v-12h-71v12q24 0 24 23v268q0 27 -24 27v12h51l133 -260v222q0 26 -31 26v12h70v-12zM350 90l-11 -90h-235v12q51 -2 51 27v261q0 27 -51 27v12h235l8 -93h-8q-24 49 -40 64q-23 17 -73 17
q-40 0 -40 -27v-116h55q27 0 27 82h12v-184h-12l1 15q0 75 -28 75h-55v-133q0 -28 44 -28q52 0 72 16q17 11 41 63h7zM121 394q-58 -117 -58 -228q0 -108 51 -217l-4 -4l-8 4q-70 106 -70 217q0 117 78 228l7 4q2 0 4 -4z" />
    <glyph glyph-name="uni2406" unicode="&#x2406;" 
d="M865 457q0 -47 -52 -47q-58 0 -58 70q0 75 55 75q47 0 47 -30q0 -10 -13 -10q-10 0 -10 9q2 4 7 11q0 12 -31 12q-35 0 -35 -60v-3q26 13 44 13q16 0 32 -11q14 -11 14 -29zM845 453q0 13 -9 25q-10 10 -21 10q-23 0 -40 -17q0 -53 39 -53q31 0 31 35zM705 518
q-34 -113 -120 -113q-63 0 -99 64q-32 52 -32 121q0 71 30 125q36 66 101 66q12 0 33 -6q18 -6 27 -6q13 0 28 12l24 -92l-12 -4q-30 80 -100 80q-50 0 -76 -62q-19 -47 -19 -105q0 -64 24 -108q28 -54 87 -54q49 0 91 83zM968 166q0 -109 -70 -217l-8 -4q-3 1 -4 4
q51 110 51 217t-58 228q0 1 4 4l7 -4q78 -111 78 -228zM862 0h-78v12q16 0 16 12q-1 2 -4 11l-64 148l-30 -46v-97q0 -20 4 -24q3 -4 20 -4v-12h-79v12q28 0 28 27v270q0 14 -5 19q-8 4 -23 4v12h79v-12q-14 0 -20 -4q-4 -5 -4 -19v-141l91 138q8 13 8 19q0 7 -19 7v12h69
v-12q-23 0 -39 -27l-59 -94l78 -172q9 -22 31 -27v-12zM429 685h-12q-26 40 -39 53q-27 25 -59 25q-23 0 -23 -28v-279q0 -31 70 -31v-15h-179v15q74 0 74 31v279q0 28 -28 28q-51 0 -93 -78h-12l19 93h266zM604 102q-26 -102 -105 -102q-59 0 -88 53q-25 43 -25 111
q0 65 22 112q28 63 87 63q9 0 31 -5q20 -6 28 -6t19 11l24 -85l-8 -4q-18 38 -34 54q-23 20 -60 20q-42 0 -63 -61q-15 -44 -15 -95q0 -143 93 -143q49 0 85 77h9zM357 0h-89v12q30 0 30 16v1q-1 1 -1.5 3.5t-1.5 6.5t-2.5 9.5t-2.5 12.5l-17 72h-85l-23 -84q-6 -24 -6 -25
q0 -12 26 -12v-12h-71v12q18 0 23 8q1 1 8 23l84 301l16 8l79 -309q7 -31 33 -31v-12zM269 144l-38 147l-40 -147h78zM121 394q-58 -117 -58 -228q0 -108 51 -217l-4 -4l-8 4q-70 106 -70 217q0 117 78 228l7 4q2 0 4 -4z" />
    <glyph glyph-name="uni2407" unicode="&#x2407;" 
d="M956 203l-12 -203h-218v31q22 0 31 9q8 8 8 30v620q0 19 -10 26q-8 4 -29 4v31h109v-31q-25 0 -32 -7t-7 -27v-616q0 -25 13 -32q8 -7 38 -7q57 0 78 61q3 9 18 111h13zM698 207l-11 -207h-219v31q39 0 39 48v604q0 22 -7 31q-8 6 -32 6v31h109v-31q-26 0 -32 -8
q-7 -8 -7 -31v-602q0 -26 7 -34q10 -14 44 -14q53 0 75 59q7 20 22 117h12zM447 199l-11 -199h-179v31q23 0 23 56v584q0 49 -23 49v31h179l7 -199h-10q-16 80 -23 102q-24 66 -67 66q-32 0 -32 -46l1 -272h32q26 0 26 117h16v-273h-16q0 125 -26 125h-32v-296q0 -44 38 -44
q45 0 66 65q4 13 21 103h10zM241 211q0 -211 -113 -211h-86v31q31 0 31 38v611q0 18 -4 28q-7 12 -27 12v31h90q101 0 101 -181q0 -121 -63 -172q71 -39 71 -187zM202 570q0 150 -70 150q-9 0 -18 -6q-10 -6 -10 -14v-290h26q32 0 53 48q19 48 19 112zM210 215q0 69 -18 115
q-21 53 -59 53h-29v-303q0 -45 29 -45q77 0 77 180z" />
    <glyph glyph-name="uni2408" unicode="&#x2408;" 
d="M858 481q0 -33 -7 -49q-12 -22 -43 -22q-32 0 -44 22q-7 13 -7 49q0 35 7 49q11 23 44 23q31 0 43 -23q7 -18 7 -49zM839 481q0 63 -31 63q-32 0 -32 -63q0 -62 32 -62q31 0 31 62zM714 505l-15 -96h-232v14q31 0 31 32v284q0 25 -31 25v14h232l11 -95h-11q-27 54 -47 68
q-22 14 -80 14q-33 0 -33 -26v-132h56q28 0 28 57h12v-132h-12q0 60 -28 60h-56v-137q0 -32 60 -32q74 0 104 82h11zM968 166q0 -109 -70 -217l-8 -4q-3 1 -4 4q51 110 51 217t-58 228q0 1 4 4l7 -4q78 -111 78 -228zM894 94q0 -52 -59 -76q-43 -18 -102 -18q-26 0 -61 8
q-42 8 -48 8q-18 0 -39 -12l-51 98l16 3q31 -37 79 -61q50 -28 97 -28q48 0 83 18q34 19 34 52q0 34 -53 54q-27 6 -81 20q-76 19 -101 31q-46 22 -46 59q0 50 47 75q38 19 93 19q15 0 50 -8q29 -8 52 -8q16 0 31 8l43 -90h-16q-35 42 -67 63q-40 23 -89 23q-36 0 -63 -16
q-31 -19 -31 -54q0 -28 34 -43q20 -10 75 -23q92 -22 116 -31q57 -24 57 -71zM433 679h-12q-31 52 -59 69q-29 16 -88 16h-31q-29 0 -29 -25v-132h79q31 0 31 57h13v-132h-13q0 60 -31 60h-79v-137q0 -20 12 -26q10 -6 44 -6v-14h-140v14q44 0 44 32v284q0 25 -44 25v14h295
zM491 98q0 -94 -175 -94h-184v14l13 -1q38 0 38 28v259q0 23 -51 23v13h215q46 0 79 -18q42 -23 42 -64q0 -66 -94 -78q43 -4 76 -20q41 -24 41 -62zM417 258q0 69 -101 69h-59q-31 0 -31 -23v-120h84q39 0 70 20q37 23 37 54zM440 98q0 74 -130 74h-84v-127q0 -27 60 -27
q154 0 154 80zM121 394q-58 -117 -58 -228q0 -108 51 -217l-4 -4l-8 4q-70 106 -70 217q0 117 78 228l7 4q2 0 4 -4z" />
    <glyph glyph-name="uni2409" unicode="&#x2409;" 
d="M866 410h-109v9h18q29 0 29 18v91h-51v11q39 0 59 12h15v-114q0 -18 39 -18v-9zM714 505l-15 -96h-232v14q31 0 31 32v284q0 25 -31 25v14h232l11 -95h-11q-27 54 -47 68q-22 14 -80 14q-33 0 -33 -26v-132h56q28 0 28 57h12v-132h-12q0 60 -28 60h-56v-137q0 -32 60 -32
q74 0 104 82h11zM968 166q0 -109 -70 -217l-8 -4q-3 1 -4 4q51 110 51 217t-58 228q0 1 4 4l7 -4q78 -111 78 -228zM433 679h-12q-31 52 -59 69q-29 16 -88 16h-31q-29 0 -29 -25v-132h79q31 0 31 57h13v-132h-13q0 60 -31 60h-79v-137q0 -20 12 -26q10 -6 44 -6v-14h-140
v14q44 0 44 32v284q0 25 -44 25v14h295zM874 254h-12q-35 40 -52 53q-30 21 -69 21q-27 0 -27 -23v-266q0 -27 57 -27v-12h-151v12q51 0 51 27v266q0 23 -31 23q-63 0 -114 -74h-11l19 86h317zM483 4h-129v12q47 0 47 27v127h-179v-127q0 -27 43 -27v-12h-129v12q43 0 43 27
v262q0 23 -43 23v12h129v-12q-43 0 -43 -23v-121h179v121q0 23 -47 23v12h129v-12q-39 0 -39 -23v-262q0 -27 39 -27v-12zM121 394q-58 -117 -58 -228q0 -108 51 -217l-4 -4l-8 4q-70 106 -70 217q0 117 78 228l7 4q2 0 4 -4z" />
    <glyph glyph-name="uni240A" unicode="&#x240a;" 
d="M847 442l-4 -31h-94q0 31 41 57q41 27 41 49q0 23 -35 23t-35 -23q0 -4 7 -7q8 -3 8 -8q0 -7 -11 -7q-12 0 -12 18q0 39 43 39q51 0 51 -35q0 -18 -16 -32q-6 -6 -33 -21q-34 -22 -37 -41h62q11 0 20 19h4zM714 505l-15 -96h-232v14q31 0 31 32v284q0 25 -31 25v14h232
l11 -95h-11q-27 54 -47 68q-22 14 -80 14q-33 0 -33 -26v-132h56q28 0 28 57h12v-132h-12q0 60 -28 60h-56v-137q0 -32 60 -32q74 0 104 82h11zM968 166q0 -109 -70 -217l-8 -4q-3 1 -4 4q51 110 51 217t-58 228q0 1 4 4l7 -4q78 -111 78 -228zM433 679h-12q-31 52 -59 69
q-29 16 -88 16h-31q-29 0 -29 -25v-132h79q31 0 31 57h13v-132h-13q0 60 -31 60h-79v-137q0 -20 12 -26q10 -6 44 -6v-14h-140v14q44 0 44 32v284q0 25 -44 25v14h295zM841 241h-12q-27 60 -57 75q-24 11 -91 11h-37q-29 0 -29 -26v-120h85q32 0 32 57h13v-132h-13
q0 60 -32 60h-85v-120q0 -21 13 -27q8 -5 43 -5v-14h-139v14q43 0 43 32v255q0 26 -43 26v14h288zM483 94l-15 -90h-320v14q46 0 46 35v251q0 23 -46 23v13h144v-13q-51 0 -51 -23v-251q0 -35 71 -35q67 0 100 16q34 15 60 60h11zM121 394q-58 -117 -58 -228q0 -108 51 -217
l-4 -4l-8 4q-70 106 -70 217q0 117 78 228l7 4q2 0 4 -4z" />
    <glyph glyph-name="uni240B" unicode="&#x240b;" 
d="M843 445q0 -39 -51 -39q-47 0 -47 28q0 11 12 11q10 0 10 -7q0 -2 -9 -11q0 -13 34 -13q35 0 35 31q0 14 -16 24q-13 8 -25 8v3q12 0 24 8q13 10 13 24q0 23 -31 23t-31 -13q15 -6 15 -10q0 -7 -10 -7q-13 0 -13 14q0 28 43 28t43 -34q0 -14 -9 -23q-12 -10 -22 -10
q35 -9 35 -35zM714 505l-15 -96h-232v14q31 0 31 32v284q0 25 -31 25v14h232l11 -95h-11q-27 54 -47 68q-22 14 -80 14q-33 0 -33 -26v-132h56q28 0 28 57h12v-132h-12q0 60 -28 60h-56v-137q0 -32 60 -32q74 0 104 82h11zM968 166q0 -109 -70 -217l-8 -4q-3 1 -4 4
q51 110 51 217t-58 228q0 1 4 4l7 -4q78 -111 78 -228zM433 679h-12q-31 52 -59 69q-29 16 -88 16h-31q-29 0 -29 -25v-132h79q31 0 31 57h13v-132h-13q0 60 -31 60h-79v-137q0 -20 12 -26q10 -6 44 -6v-14h-140v14q44 0 44 32v284q0 25 -44 25v14h295zM874 254h-12
q-35 40 -52 53q-30 21 -69 21q-27 0 -27 -23v-266q0 -27 57 -27v-12h-151v12q51 0 51 27v266q0 23 -31 23q-63 0 -114 -74h-11l19 86h317zM491 328q-50 0 -62 -31l-117 -293h-16l-121 297q-12 27 -47 27v12h140v-12q-47 0 -47 -16q0 -7 4 -15l88 -237l97 237q4 12 4 15
q0 16 -44 16v12h121v-12zM121 394q-58 -117 -58 -228q0 -108 51 -217l-4 -4l-8 4q-70 106 -70 217q0 117 78 228l7 4q2 0 4 -4z" />
    <glyph glyph-name="uni240C" unicode="&#x240c;" 
d="M852 410h-68v6h12q16 0 16 12v15h-67v10l67 98h15v-102h25v-6h-25v-15q0 -12 13 -12h12v-6zM812 449v86l-59 -86h59zM714 505l-15 -96h-232v14q31 0 31 32v284q0 25 -31 25v14h232l11 -95h-11q-27 54 -47 68q-22 14 -80 14q-33 0 -33 -26v-132h56q28 0 28 57h12v-132h-12
q0 60 -28 60h-56v-137q0 -32 60 -32q74 0 104 82h11zM968 166q0 -109 -70 -217l-8 -4q-3 1 -4 4q51 110 51 217t-58 228q0 1 4 4l7 -4q78 -111 78 -228zM433 679h-12q-31 52 -59 69q-29 16 -88 16h-31q-29 0 -29 -25v-132h79q31 0 31 57h13v-132h-13q0 60 -31 60h-79v-137
q0 -20 12 -26q10 -6 44 -6v-14h-140v14q44 0 44 32v284q0 25 -44 25v14h295zM841 241h-12q-27 60 -57 75q-24 11 -91 11h-37q-29 0 -29 -26v-120h85q32 0 32 57h13v-132h-13q0 60 -32 60h-85v-120q0 -21 13 -27q8 -5 43 -5v-14h-139v14q43 0 43 32v255q0 26 -43 26v14h288z
M457 241h-12q-25 60 -56 75q-25 11 -91 11h-37q-29 0 -29 -26v-120h85q31 0 31 57h13v-132h-13q0 60 -31 60h-85v-120q0 -20 12 -26q10 -6 44 -6v-14h-140v14q44 0 44 32v255q0 26 -44 26v14h288zM121 394q-58 -117 -58 -228q0 -108 51 -217l-4 -4l-8 4q-70 106 -70 217
q0 117 78 228l7 4q2 0 4 -4z" />
    <glyph glyph-name="uni240D" unicode="&#x240d;" 
d="M861 457q0 -47 -55 -47q-43 0 -43 27q0 12 10 12q9 0 9 -8q0 -3 -4 -5q-3 -3 -3 -6q0 -12 31 -12q37 0 37 39q0 33 -32 33q-24 0 -36 -17h-11l4 77h89l-4 -14h-77l-3 -51q18 15 41 15q17 0 32 -12q15 -14 15 -31zM714 505l-15 -96h-232v14q31 0 31 32v284q0 25 -31 25v14
h232l11 -95h-11q-27 54 -47 68q-22 14 -80 14q-33 0 -33 -26v-132h56q28 0 28 57h12v-132h-12q0 60 -28 60h-56v-137q0 -32 60 -32q74 0 104 82h11zM968 166q0 -109 -70 -217l-8 -4q-3 1 -4 4q51 110 51 217t-58 228q0 1 4 4l7 -4q78 -111 78 -228zM433 679h-12
q-31 52 -59 69q-29 16 -88 16h-31q-29 0 -29 -25v-132h79q31 0 31 57h13v-132h-13q0 60 -31 60h-79v-137q0 -20 12 -26q10 -6 44 -6v-14h-140v14q44 0 44 32v284q0 25 -44 25v14h295zM873 1h-86l-126 164h-62v-125q0 -27 51 -27v-12h-141v12q51 0 51 27v262q0 23 -51 23v12
h192q44 0 80 -22q41 -26 41 -68q0 -82 -118 -82l102 -129q17 -23 67 -23v-12zM779 251q0 47 -49 65q-30 9 -89 9q-42 0 -42 -23v-125h87q93 0 93 74zM453 99q-49 -99 -161 -99q-84 0 -134 46t-50 122q0 80 52 128q52 46 132 46q14 0 42 -6q27 -6 40 -6q16 0 35 12l31 -82
l-9 -4q-60 66 -139 66q-63 0 -102 -42q-39 -44 -39 -108q0 -63 45 -102q43 -40 116 -40q83 0 135 74zM121 394q-58 -117 -58 -228q0 -108 51 -217l-4 -4l-8 4q-70 106 -70 217q0 117 78 228l7 4q2 0 4 -4z" />
    <glyph glyph-name="uni240E" unicode="&#x240e;" 
d="M944 381q0 -381 -195 -381t-195 381q0 370 196 370q194 0 194 -370zM894 379q0 342 -145 342q-144 0 -144 -342q0 -147 31 -237q36 -113 114 -113q76 0 113 113q31 95 31 237zM492 199q0 -83 -53 -139q-57 -60 -152 -60q-30 0 -74 17q-49 17 -57 17q-21 0 -39 -15
l-62 199l14 8q91 -201 218 -201q72 0 117 46q43 46 43 117q0 91 -95 133l-145 63q-53 22 -85 72q-32 48 -32 113q0 73 40 123q47 59 132 59q33 0 80 -22q43 -22 45 -22q19 0 35 11l51 -177h-17q-43 84 -73 120q-56 65 -118 65q-58 0 -91 -38q-33 -39 -33 -96q0 -106 87 -144
l143 -64q121 -54 121 -185z" />
    <glyph glyph-name="uni240F" unicode="&#x240f;" 
d="M890 0h-250v23q48 0 68 12q29 15 29 59v574q0 40 -31 54q-20 7 -66 8v20h250v-20q-48 0 -66 -9q-32 -15 -32 -53v-574q0 -44 29 -59q19 -12 69 -12v-23zM546 199q0 -83 -53 -139q-57 -60 -152 -60q-30 0 -74 17q-49 17 -57 17q-21 0 -39 -15l-63 199l15 8
q91 -201 218 -201q71 0 116 46q44 46 44 117q0 91 -96 133l-144 63q-53 22 -85 72q-32 48 -32 113q0 73 40 123q47 59 131 59q34 0 81 -22l44 -22q20 0 36 11l50 -177h-16q-41 81 -74 120q-54 65 -118 65q-57 0 -90 -38q-34 -38 -34 -96q0 -106 87 -144l144 -64
q121 -54 121 -185z" />
    <glyph glyph-name="uni2410" unicode="&#x2410;" 
d="M863 536q-55 -71 -55 -110q0 -24 -15 -24q-14 0 -14 20q0 16 29 57q25 37 43 56h-71q-13 0 -25 -27l-8 2l12 36q0 4 4 4h100v-14zM705 518q-34 -113 -120 -113q-63 0 -99 64q-32 52 -32 121q0 71 30 125q36 66 101 66q12 0 33 -6q18 -6 27 -6q13 0 28 12l24 -92l-12 -4
q-30 80 -100 80q-50 0 -76 -62q-19 -47 -19 -105q0 -64 24 -108q28 -54 87 -54q49 0 91 83zM968 166q0 -109 -70 -217l-8 -4q-3 1 -4 4q51 110 51 217t-58 228q0 1 4 4l7 -4q78 -111 78 -228zM876 90l-11 -90h-234v12q51 -2 51 27v261q0 27 -51 27v12h234l8 -93h-8
q-22 49 -40 64q-22 17 -73 17q-39 0 -39 -27v-116h55q27 0 27 82h12v-184h-12v15q0 75 -27 75h-55v-133q0 -28 44 -28q52 0 72 16q16 11 40 63h7zM429 685h-12q-26 40 -39 53q-27 25 -59 25q-23 0 -23 -28v-279q0 -31 70 -31v-15h-179v15q74 0 74 31v279q0 28 -28 28
q-51 0 -93 -78h-12l19 93h266zM616 90l-12 -90h-218v12q39 -2 39 27v264q0 23 -39 23v12h101v-12q-35 0 -35 -23v-264q0 -19 17 -25q5 -2 34 -2q51 0 71 14q19 15 34 64h8zM347 174q0 -61 -28 -112q-35 -62 -97 -62h-98v12q27 -2 27 27v265q0 19 -27 19v16h108q58 0 90 -57
q25 -47 25 -108zM312 174q0 52 -20 95q-27 54 -74 54h-13q-26 0 -26 -19v-265q0 -24 26 -24h13q50 0 75 59q19 44 19 100zM121 394q-58 -117 -58 -228q0 -108 51 -217l-4 -4l-8 4q-70 106 -70 217q0 117 78 228l7 4q2 0 4 -4z" />
    <glyph glyph-name="uni2411" unicode="&#x2411;" 
d="M957 1h-150v16h32q27 0 27 15v160q0 8 -12 8h-47v16q59 0 79 19h11v-203q0 -15 28 -15h32v-16zM741 220q-43 -221 -148 -221q-164 0 -164 365q0 135 27 235q42 148 133 148q24 0 52 -13q22 -14 26 -14q14 0 31 23l32 -176l-16 -8q-20 69 -40 106q-33 54 -85 54
q-67 0 -97 -143q-20 -89 -20 -200t21 -192q33 -128 113 -128q66 0 118 168zM382 380q0 -151 -39 -247q-53 -132 -171 -132h-118v26q39 0 39 44v610q0 23 -7 34q-7 9 -32 9v27h139q189 0 189 -371zM339 380q0 138 -34 234q-41 110 -116 110q-46 0 -55 -14q-6 -9 -6 -29v-610
q0 -44 58 -44q71 0 114 113q39 100 39 240z" />
    <glyph glyph-name="uni2412" unicode="&#x2412;" 
d="M938 61l-4 -60h-155q0 43 35 74q30 20 65 47q33 24 33 54q0 19 -16 35q-19 14 -38 14q-61 0 -61 -41q0 -4 11 -10q12 -6 12 -14q0 -15 -16 -15q-21 0 -21 31q0 29 24 47q22 16 51 16q30 0 56 -16q24 -16 24 -47q0 -32 -27 -53q-9 -9 -52 -32q-53 -30 -62 -69h100
q15 0 22 13q1 2 9 26h10zM741 220q-43 -221 -148 -221q-164 0 -164 365q0 135 27 235q42 148 133 148q24 0 52 -13q22 -14 26 -14q14 0 31 23l32 -176l-16 -8q-20 69 -40 106q-33 54 -85 54q-67 0 -97 -143q-20 -89 -20 -200t21 -192q33 -128 113 -128q66 0 118 168z
M382 380q0 -151 -39 -247q-53 -132 -171 -132h-118v26q39 0 39 44v610q0 23 -7 34q-7 9 -32 9v27h139q189 0 189 -371zM339 380q0 138 -34 234q-41 110 -116 110q-46 0 -55 -14q-6 -9 -6 -29v-610q0 -44 58 -44q71 0 114 113q39 100 39 240z" />
    <glyph glyph-name="uni2413" unicode="&#x2413;" 
d="M938 71q0 -35 -24 -53q-26 -18 -63 -18q-27 0 -47 12q-25 15 -25 39q0 27 21 27q16 0 16 -15q0 -6 -8 -12l-7 -7q0 -15 18 -24q15 -6 32 -6q57 0 57 57q0 49 -62 49v10q58 0 58 49q0 20 -16 33t-37 13q-15 0 -31 -8q-15 -9 -15 -21q0 -4 9 -7q10 -5 10 -10q0 -14 -13 -14
q-24 0 -24 23t24 38q21 12 47 12q30 0 51 -15t21 -44q0 -40 -43 -52q19 -3 35 -19q16 -18 16 -37zM741 220q-43 -221 -148 -221q-164 0 -164 365q0 135 27 235q42 148 133 148q24 0 52 -13q22 -14 26 -14q14 0 31 23l32 -176l-16 -8q-20 69 -40 106q-33 54 -85 54
q-67 0 -97 -143q-20 -89 -20 -200t21 -192q33 -128 113 -128q66 0 118 168zM382 380q0 -151 -39 -247q-53 -132 -171 -132h-118v26q39 0 39 44v610q0 23 -7 34q-7 9 -32 9v27h139q189 0 189 -371zM339 380q0 138 -34 234q-41 110 -116 110q-46 0 -55 -14q-6 -9 -6 -29v-610
q0 -44 58 -44q71 0 114 113q39 100 39 240z" />
    <glyph glyph-name="uni2414" unicode="&#x2414;" 
d="M930 59h-35v-30q0 -18 27 -18v-10h-88v10h23q12 3 12 18v30h-94v13l102 163h18v-166h35v-10zM869 69v127l-79 -127h79zM741 220q-43 -221 -148 -221q-164 0 -164 365q0 135 27 235q42 148 133 148q24 0 52 -13q22 -14 26 -14q14 0 31 23l32 -176l-16 -8q-20 69 -40 106
q-33 54 -85 54q-67 0 -97 -143q-20 -89 -20 -200t21 -192q33 -128 113 -128q66 0 118 168zM382 380q0 -151 -39 -247q-53 -132 -171 -132h-118v26q39 0 39 44v610q0 23 -7 34q-7 9 -32 9v27h139q189 0 189 -371zM339 380q0 138 -34 234q-41 110 -116 110q-46 0 -55 -14
q-6 -9 -6 -29v-610q0 -44 58 -44q71 0 114 113q39 100 39 240z" />
    <glyph glyph-name="uni2415" unicode="&#x2415;" 
d="M842 449q0 -18 -14 -29q-14 -10 -32 -10q-48 0 -48 38q0 21 36 36q-31 6 -31 31q0 35 43 35q42 0 42 -32q0 -23 -30 -32q34 -11 34 -37zM827 518q0 20 -31 20q-32 0 -32 -23q0 -14 32 -26q31 12 31 29zM831 449q0 11 -15 21q-14 9 -26 10q-30 -18 -30 -32q0 -27 36 -27
q13 0 24 8t11 20zM705 518q-34 -113 -120 -113q-63 0 -99 64q-32 52 -32 121q0 71 30 125q36 66 101 66q12 0 33 -6q18 -6 27 -6q13 0 28 12l24 -92l-12 -4q-30 80 -100 80q-50 0 -76 -62q-19 -47 -19 -105q0 -64 24 -108q28 -54 87 -54q49 0 91 83zM968 166
q0 -109 -70 -217l-8 -4q-3 1 -4 4q51 110 51 217t-58 228q0 1 4 4l7 -4q78 -111 78 -228zM862 0h-78v12q16 0 16 12q-1 2 -4 11l-64 148l-30 -46v-97q0 -20 4 -24q3 -4 20 -4v-12h-79v12q28 0 28 27v270q0 14 -5 19q-8 4 -23 4v12h79v-12q-14 0 -20 -4q-4 -5 -4 -19v-141
l91 138q8 13 8 19q0 7 -19 7v12h69v-12q-23 0 -39 -27l-59 -94l78 -172q9 -22 31 -27v-12zM429 685h-12q-26 40 -39 53q-27 25 -59 25q-23 0 -23 -28v-279q0 -31 70 -31v-15h-179v15q74 0 74 31v279q0 28 -28 28q-51 0 -93 -78h-12l19 93h266zM611 0h-89v12q30 0 30 16v1
q-1 1 -1.5 3.5t-1.5 6.5t-2.5 9.5t-2.5 12.5l-17 72h-85l-22 -84q-7 -22 -7 -25q0 -12 26 -12v-12h-71v12q18 0 23 8q1 1 8 23l84 301l16 8l79 -309q7 -31 33 -31v-12zM523 144l-38 147l-40 -147h78zM346 330q-14 0 -16 -6q-3 -6 -3 -21v-303h-16l-145 287v-252
q0 -23 28 -23v-12h-71v12q24 0 24 23v268q0 27 -24 27v12h51l133 -260v222q0 26 -31 26v12h70v-12zM121 394q-58 -117 -58 -228q0 -108 51 -217l-4 -4l-8 4q-70 106 -70 217q0 117 78 228l7 4q2 0 4 -4z" />
    <glyph glyph-name="uni2416" unicode="&#x2416;" 
d="M855 475q0 -65 -55 -65q-47 0 -47 26q0 11 13 11t13 -9q0 -3 -10 -10q1 -10 32 -10q34 0 34 57q-16 -15 -40 -15q-46 0 -46 47q0 46 51 46q55 0 55 -78zM835 487q0 59 -35 59q-31 0 -31 -39t27 -39q21 0 39 19zM705 518q-34 -113 -120 -113q-63 0 -99 64q-32 52 -32 121
q0 71 30 125q36 66 101 66q12 0 33 -6q18 -6 27 -6q13 0 28 12l24 -92l-12 -4q-30 80 -100 80q-50 0 -76 -62q-19 -47 -19 -105q0 -64 24 -108q28 -54 87 -54q49 0 91 83zM968 166q0 -109 -70 -217l-8 -4q-3 1 -4 4q51 110 51 217t-58 228q0 1 4 4l7 -4q78 -111 78 -228z
M866 330q-14 0 -16 -6q-3 -6 -3 -21v-303h-16l-144 287v-252q0 -23 27 -23v-12h-70v12q23 0 23 23v268q0 27 -23 27v12h50l133 -260v222q0 26 -31 26v12h70v-12zM429 685h-12q-26 40 -39 53q-27 25 -59 25q-23 0 -23 -28v-279q0 -31 70 -31v-15h-179v15q74 0 74 31v279
q0 28 -28 28q-51 0 -93 -78h-12l19 93h266zM601 328q-26 0 -35 -24l-59 -167v-102q0 -12 5.5 -18t17.5 -5v-12h-86v12q28 -2 28 23v102l-67 160q-14 31 -39 31v12h94v-12q-27 0 -27 -12q0 -10 62 -171q59 160 59 168q0 15 -32 15v12h79v-12zM335 94q0 -40 -29 -67
q-30 -27 -69 -27q-15 0 -35 8q-26 8 -35 8q-14 0 -23 -12l-36 102l12 3q16 -35 47 -63q32 -32 68 -32q30 0 49 20q20 22 20 52q0 16 -14 38q-13 18 -29 24l-71 24q-62 21 -62 82q0 41 24 68q24 26 66 26q23 0 39 -8q21 -12 23 -12q8 0 20 12l27 -94h-8q-21 41 -38 61
q-27 29 -63 29q-59 0 -59 -70q0 -31 21 -46q11 -11 48 -22q53 -18 71 -29q36 -24 36 -75zM121 394q-58 -117 -58 -228q0 -108 51 -217l-4 -4l-8 4q-70 106 -70 217q0 117 78 228l7 4q2 0 4 -4z" />
    <glyph glyph-name="uni2417" unicode="&#x2417;" 
d="M862 480q0 -71 -31 -71q-27 0 -27 71q0 37 2 44q5 28 25 28q31 0 31 -72zM851 480q0 66 -20 66q-16 0 -16 -66q0 -65 16 -65q20 0 20 65zM790 410h-50v5q16 0 16 12v98q0 10 -9 10h-7v5q17 0 24 11h8v-124q0 -12 18 -12v-5zM705 518q-34 -113 -120 -113q-63 0 -99 64
q-32 52 -32 121q0 71 30 125q36 66 101 66q12 0 33 -6q18 -6 27 -6q13 0 28 12l24 -92l-12 -4q-30 80 -100 80q-50 0 -76 -62q-19 -47 -19 -105q0 -64 24 -108q28 -54 87 -54q49 0 91 83zM968 166q0 -109 -70 -217l-8 -4q-3 1 -4 4q51 110 51 217t-58 228q0 1 4 4l7 -4
q78 -111 78 -228zM882 90q0 -40 -27 -67t-63 -27h-156v12q51 -2 51 27v261q0 27 -51 27v12h147q35 0 61 -23q26 -24 26 -58q0 -56 -57 -75q69 -12 69 -89zM835 254q0 69 -72 69h-13q-32 0 -32 -27v-112h62q23 0 39 23q16 24 16 47zM847 90q0 82 -67 82h-62v-137
q0 -27 54 -27q75 0 75 82zM429 685h-12q-26 40 -39 53q-27 25 -59 25q-23 0 -23 -28v-279q0 -31 70 -31v-15h-179v15q74 0 74 31v279q0 28 -28 28q-51 0 -93 -78h-12l19 93h266zM620 254h-8q-21 39 -27 48q-22 25 -47 25q-16 0 -16 -23v-261q0 -31 51 -31v-12h-125v12
q47 -2 47 31v261q0 23 -19 23q-38 0 -75 -73h-7l15 85h199zM354 90l-11 -90h-235v12q51 -2 51 27v261q0 27 -51 27v12h235l8 -93h-8q-24 49 -40 64q-23 17 -73 17q-40 0 -40 -27v-116h55q27 0 27 82h12v-184h-12l1 15q0 75 -28 75h-55v-133q0 -28 44 -28q52 0 72 16
q17 11 41 63h7zM121 394q-58 -117 -58 -228q0 -108 51 -217l-4 -4l-8 4q-70 106 -70 217q0 117 78 228l7 4q2 0 4 -4z" />
    <glyph glyph-name="uni2418" unicode="&#x2418;" 
d="M940 707q-9 0 -18 -9q-9 -10 -9 -27v-668h-23l-196 622v-543q0 -24 6 -30t29 -6v-43h-101v43q35 0 35 39v579q0 43 -35 43v43h66l188 -560v474q0 17 -3 26q-6 17 -36 17v43h97v-43zM593 3h-110v43q36 0 36 15q0 3 -0.5 7.5t-1.5 13t-2 15.5l-28 175h-113l-35 -175
q-4 -19 -4 -35q3 -7 19 -11q12 -5 24 -5v-43h-102v43q24 0 36 54l117 637l15 12l114 -656q3 -24 7 -33q7 -14 28 -14v-43zM479 315l-50 313l-47 -313h97zM288 226q-39 -226 -113 -226q-125 0 -125 358q0 110 21 221q31 171 100 171q16 0 38 -16q21 -15 24 -15q10 0 24 23
l23 -184l-19 -7q-16 63 -27 92q-26 60 -63 60q-43 0 -62 -147q-12 -92 -12 -182q0 -128 8 -177q18 -123 74 -123q31 0 54 48q14 29 36 112z" />
    <glyph glyph-name="uni2419" unicode="&#x2419;" 
d="M952 1h-133v23q43 0 43 59v601l-160 -683l-152 706v-624q0 -51 23 -57q5 -2 22 -2v-23h-118v23q29 0 37 17q6 12 6 42v596q0 48 -44 48v24h115l123 -581l137 581h101v-24q-39 -1 -39 -23v-621q0 -59 39 -59v-23zM448 196l-19 -195h-379v23q34 0 48 17q10 15 10 50v578
q0 30 -13 45q-15 13 -45 13v24h379l15 -192h-11q-37 95 -68 126q-43 42 -132 42q-40 0 -54 -8q-20 -11 -20 -50v-274h96q51 0 51 125h17v-277h-17q0 59 -8 88q-12 41 -43 41h-96v-281q0 -45 26 -58q15 -9 65 -9q87 0 129 45q29 32 61 127h8z" />
    <glyph glyph-name="uni241A" unicode="&#x241a;" 
d="M944 212q0 -72 -25 -133q-33 -78 -99 -78h-149v32q39 0 39 57v575q0 19 -8 40q-6 14 -31 14v32h137q60 0 93 -56q28 -50 28 -122q0 -61 -14 -98q-18 -48 -61 -77q45 -18 69 -74q21 -49 21 -112zM890 573q0 146 -90 146q-27 0 -35 -2q-16 -6 -16 -26v-279h70q32 0 53 65
q18 51 18 96zM905 212q0 168 -86 168h-70v-290q0 -49 27 -55q7 -2 32 -2q49 0 76 60q21 48 21 119zM632 722q-24 0 -24 -21v-508q0 -62 -23 -119q-31 -73 -86 -73q-69 0 -90 83q-12 42 -12 138v450q0 28 -6 37q-10 13 -37 13v29h114v-29q-29 0 -35 -12q-4 -7 -4 -38v-458
q0 -160 70 -160q82 0 82 160v451q0 57 -27 57v29h78v-29zM327 201q0 -73 -24 -127q-31 -73 -93 -73q-26 0 -54 17q-33 18 -36 18q-6 0 -19 -25l-43 211l11 7q54 -196 137 -196q40 0 64 57q18 45 18 93q0 93 -51 129l-86 60q-74 52 -74 172q0 70 21 127q30 80 89 80
q17 0 45 -23q23 -23 29 -23q11 0 23 21l35 -193l-11 -7q-36 124 -62 160q-27 36 -59 36q-40 0 -58 -55q-13 -38 -13 -91q0 -92 51 -125l86 -57q74 -51 74 -193z" />
    <glyph glyph-name="uni241B" unicode="&#x241b;" 
d="M948 231q-47 -231 -133 -231q-76 0 -112 149q-24 101 -24 220q0 120 22 220q36 161 114 161q17 0 41 -15t26 -15q10 0 27 26l24 -177l-8 -8q0 1 -1.5 7.5t-2.5 11.5q-33 136 -106 136q-54 0 -80 -140q-17 -88 -17 -192q0 -115 18 -196q28 -127 95 -127q60 0 106 173z
M624 203q0 -68 -23 -126q-31 -77 -90 -77q-18 0 -45 18q-29 17 -33 17q-16 0 -24 -23l-39 211l12 7q17 -70 43 -119q39 -80 82 -80q40 0 64 59q18 45 18 94q0 92 -47 128q-50 36 -82 61q-70 51 -70 169q0 70 19 127q27 81 82 81q21 0 45 -22q22 -23 26 -23q7 0 19 22
l31 -192l-11 -8q-22 79 -23 83q-17 51 -32 76q-25 34 -55 34q-36 0 -54 -58q-12 -40 -12 -89q0 -94 47 -125q9 -6 36 -24.5t46 -31.5q70 -49 70 -189zM339 201l-16 -200h-269v31q25 -1 34 17q5 10 5 40v577q0 29 -5 39q-9 15 -34 15v31h269l12 -200h-12q-24 88 -39 113
q-33 56 -97 56q-33 0 -43 -12q-12 -12 -12 -42v-270h71q15 0 27 23q8 16 8 100h15v-276h-15q0 89 -8 103q-12 20 -27 20h-71v-277q0 -40 17 -50q10 -7 53 -7q58 0 82 42q23 41 43 127h12z" />
    <glyph glyph-name="uni241C" unicode="&#x241c;" 
d="M844 442h-24v-19q0 -11 11 -11h5v-6h-53v6h9q15 0 15 11v19h-63v8l67 97h9v-96h24v-9zM807 451v73l-52 -73h52zM702 508q0 -50 -39 -77q-35 -25 -86 -25q-19 0 -43 8q-30 8 -43 8q-15 0 -27 -12l-43 106l12 3q22 -40 58 -67q39 -30 78 -30q38 0 64 20q30 21 30 58
q0 34 -35 55q-19 11 -68 26q-61 18 -79 30q-41 23 -41 69q0 45 34 73t80 28q28 0 50 -8l28 -11q10 0 23 7l35 -97h-11q-33 48 -50 65q-34 29 -75 29q-32 0 -54 -19q-21 -19 -21 -52q0 -34 29 -51q18 -12 68 -24q61 -17 86 -33q40 -29 40 -79zM968 166q0 -109 -70 -217l-8 -4
q-3 1 -4 4q51 110 51 217t-58 228q0 1 4 4l7 -4q78 -111 78 -228zM882 94q0 -52 -59 -76q-43 -18 -101 -18q-39 0 -72 8q-40 8 -42 8q-18 0 -35 -12l-51 98l16 3q26 -42 86 -70q47 -23 90 -23q50 0 80 17q37 20 37 57q0 41 -70 58l-117 28q-98 22 -98 78q0 49 50 74
q40 20 94 20q30 0 67 -8q29 -8 35 -8q14 0 27 8l47 -90h-15q-78 84 -160 84q-94 0 -94 -68q0 -26 36 -42q21 -11 82 -25q84 -21 111 -33q56 -26 56 -68zM382 410h-250v16q105 0 105 33v279q0 23 -73 23h-32v17h250v-17h-59q-47 0 -47 -23v-279q0 -33 106 -33v-16zM487 250
h-11q-42 54 -84 69q-27 9 -109 9q-50 0 -50 -33v-113h86q39 0 39 52h16v-121h-16q0 26 -6 38q-10 16 -33 16h-86v-123q0 -28 63 -27v-13h-160v13l12 -1q39 0 39 28v251q0 33 -51 33v12h340zM121 394q-58 -117 -58 -228q0 -108 51 -217l-4 -4l-8 4q-70 106 -70 217
q0 117 78 228l7 4q2 0 4 -4z" />
    <glyph glyph-name="uni241D" unicode="&#x241d;" 
d="M843 445q0 -39 -51 -39q-47 0 -47 28q0 11 12 11q10 0 10 -7q0 -2 -9 -11q0 -13 34 -13q35 0 35 31q0 14 -16 24q-13 8 -25 8v3q12 0 24 8q13 10 13 24q0 23 -31 23t-31 -13q15 -6 15 -10q0 -7 -10 -7q-13 0 -13 14q0 28 43 28t43 -34q0 -14 -9 -23q-12 -10 -22 -10
q35 -9 35 -35zM702 508q0 -50 -39 -77q-35 -25 -86 -25q-19 0 -43 8q-30 8 -43 8q-15 0 -27 -12l-43 106l12 3q22 -40 58 -67q39 -30 78 -30q38 0 64 20q30 21 30 58q0 34 -35 55q-19 11 -68 26q-61 18 -79 30q-41 23 -41 69q0 45 34 73t80 28q28 0 50 -8l28 -11q10 0 23 7
l35 -97h-11q-33 48 -50 65q-34 29 -75 29q-32 0 -54 -19q-21 -19 -21 -52q0 -34 29 -51q18 -12 68 -24q61 -17 86 -33q40 -29 40 -79zM968 166q0 -109 -70 -217l-8 -4q-3 1 -4 4q51 110 51 217t-58 228q0 1 4 4l7 -4q78 -111 78 -228zM882 94q0 -52 -59 -76
q-43 -18 -101 -18q-39 0 -72 8q-40 8 -42 8q-18 0 -35 -12l-51 98l16 3q26 -42 86 -70q47 -23 90 -23q50 0 80 17q37 20 37 57q0 41 -70 58l-117 28q-98 22 -98 78q0 49 50 74q40 20 94 20q30 0 67 -8q29 -8 35 -8q14 0 27 8l47 -90h-15q-78 84 -160 84q-94 0 -94 -68
q0 -26 36 -42q21 -11 82 -25q84 -21 111 -33q56 -26 56 -68zM382 410h-250v16q105 0 105 33v279q0 23 -73 23h-32v17h250v-17h-59q-47 0 -47 -23v-279q0 -33 106 -33v-16zM476 144q-39 0 -39 -23v-102q-35 0 -75 -7q-52 -12 -62 -12q-77 0 -130 43q-58 46 -58 121
q0 180 188 180q4 0 42 -4q24 -4 40 -4q19 0 39 8l31 -82l-15 -4q-65 70 -137 70q-68 0 -106 -50q-35 -44 -35 -114q0 -68 37 -106q36 -40 104 -40q28 0 58 12q36 15 36 40v51q0 23 -67 23v12h149v-12zM121 394q-58 -117 -58 -228q0 -108 51 -217l-4 -4l-8 4q-70 106 -70 217
q0 117 78 228l7 4q2 0 4 -4z" />
    <glyph glyph-name="uni241E" unicode="&#x241e;" 
d="M847 442l-4 -31h-94q0 31 41 57q41 27 41 49q0 23 -35 23t-35 -23q0 -4 7 -7q8 -3 8 -8q0 -7 -11 -7q-12 0 -12 18q0 39 43 39q51 0 51 -35q0 -18 -16 -32q-6 -6 -33 -21q-34 -22 -37 -41h62q11 0 20 19h4zM702 508q0 -50 -39 -77q-35 -25 -86 -25q-19 0 -43 8
q-30 8 -43 8q-15 0 -27 -12l-43 106l12 3q22 -40 58 -67q39 -30 78 -30q38 0 64 20q30 21 30 58q0 34 -35 55q-19 11 -68 26q-61 18 -79 30q-41 23 -41 69q0 45 34 73t80 28q28 0 50 -8l28 -11q10 0 23 7l35 -97h-11q-33 48 -50 65q-34 29 -75 29q-32 0 -54 -19
q-21 -19 -21 -52q0 -34 29 -51q18 -12 68 -24q61 -17 86 -33q40 -29 40 -79zM968 166q0 -109 -70 -217l-8 -4q-3 1 -4 4q51 110 51 217t-58 228q0 1 4 4l7 -4q78 -111 78 -228zM882 94q0 -52 -59 -76q-43 -18 -101 -18q-39 0 -72 8q-40 8 -42 8q-18 0 -35 -12l-51 98l16 3
q26 -42 86 -70q47 -23 90 -23q50 0 80 17q37 20 37 57q0 41 -70 58l-117 28q-98 22 -98 78q0 49 50 74q40 20 94 20q30 0 67 -8q29 -8 35 -8q14 0 27 8l47 -90h-15q-78 84 -160 84q-94 0 -94 -68q0 -26 36 -42q21 -11 82 -25q84 -21 111 -33q56 -26 56 -68zM382 410h-250v16
q105 0 105 33v279q0 23 -73 23h-32v17h250v-17h-59q-47 0 -47 -23v-279q0 -33 106 -33v-16zM499 1h-86l-126 164h-61v-125q0 -27 50 -27v-12h-140v12q51 0 51 27v262q0 23 -51 23v12h191q43 0 81 -22q40 -26 40 -68q0 -82 -118 -82l103 -129q17 -23 66 -23v-12zM405 251
q0 47 -49 65q-30 9 -89 9q-41 0 -41 -23v-125h87q92 0 92 74zM121 394q-58 -117 -58 -228q0 -108 51 -217l-4 -4l-8 4q-70 106 -70 217q0 117 78 228l7 4q2 0 4 -4z" />
    <glyph glyph-name="uni241F" unicode="&#x241f;" 
d="M866 410h-109v9h18q29 0 29 18v91h-51v11q39 0 59 12h15v-114q0 -18 39 -18v-9zM702 508q0 -50 -39 -77q-35 -25 -86 -25q-19 0 -43 8q-30 8 -43 8q-15 0 -27 -12l-43 106l12 3q22 -40 58 -67q39 -30 78 -30q38 0 64 20q30 21 30 58q0 34 -35 55q-19 11 -68 26
q-61 18 -79 30q-41 23 -41 69q0 45 34 73t80 28q28 0 50 -8l28 -11q10 0 23 7l35 -97h-11q-33 48 -50 65q-34 29 -75 29q-32 0 -54 -19q-21 -19 -21 -52q0 -34 29 -51q18 -12 68 -24q61 -17 86 -33q40 -29 40 -79zM968 166q0 -109 -70 -217l-8 -4q-3 1 -4 4q51 110 51 217
t-58 228q0 1 4 4l7 -4q78 -111 78 -228zM882 94q0 -52 -59 -76q-43 -18 -101 -18q-39 0 -72 8q-40 8 -42 8q-18 0 -35 -12l-51 98l16 3q26 -42 86 -70q47 -23 90 -23q50 0 80 17q37 20 37 57q0 41 -70 58l-117 28q-98 22 -98 78q0 49 50 74q40 20 94 20q30 0 67 -8
q29 -8 35 -8q14 0 27 8l47 -90h-15q-78 84 -160 84q-94 0 -94 -68q0 -26 36 -42q21 -11 82 -25q84 -21 111 -33q56 -26 56 -68zM382 410h-250v16q105 0 105 33v279q0 23 -73 23h-32v17h250v-17h-59q-47 0 -47 -23v-279q0 -33 106 -33v-16zM487 327q-39 0 -39 -24v-210
q0 -48 -44 -74q-34 -20 -89 -20q-57 0 -90 23q-42 26 -42 79v203q0 23 -55 23v13h144v-13h-18q-28 0 -28 -23v-196q0 -86 89 -86q110 0 110 86v193q0 26 -39 26v13h101v-13zM121 394q-58 -117 -58 -228q0 -108 51 -217l-4 -4l-8 4q-70 106 -70 217q0 117 78 228l7 4
q2 0 4 -4z" />
    <glyph glyph-name="uni2421" unicode="&#x2421;" 
d="M956 204l-12 -203h-269v31q43 0 43 63v574q0 25 -7 37q-9 14 -36 14v31h125v-31q-27 0 -36 -14q-7 -10 -7 -37v-574q0 -37 13 -49q13 -14 49 -14q70 0 98 55q12 25 27 117h12zM628 196l-16 -195h-265v31q39 0 39 52v588q0 24 -7 35q-10 13 -32 13v31h265l12 -199h-12
q-22 84 -37 113q-34 55 -99 55q-34 0 -42 -10q-9 -10 -9 -45v-262h71q28 0 27 117h19v-269h-19q0 121 -27 121h-71v-281q0 -34 15 -46q14 -13 51 -13q58 0 89 56q15 27 36 108h12zM319 380q0 -136 -23 -233q-36 -147 -121 -147h-121v31q13 -1 20 14t7 45v579q0 51 -27 51v31
h112q153 0 153 -371zM284 380q0 340 -113 340q-28 0 -40 -10q-11 -11 -11 -45v-575q0 -59 51 -59q113 0 113 349z" />
    <glyph glyph-name="uni2460" unicode="&#xf6b1;" 
d="M985 361q0 -202 -143 -343q-143 -143 -343 -143q-202 0 -343 143q-143 140 -143 343q0 201 143 343q141 143 343 143q200 0 343 -143t143 -343zM916 361q0 171 -122 295q-124 122 -295 122q-173 0 -295 -122t-122 -295q0 -174 122 -295q122 -122 295 -122q171 0 295 122
q122 122 122 295zM562 30h-100v479q-31 -23 -101 -57v127q75 38 127 101h74v-650z" />
    <glyph glyph-name="uni2460" unicode="&#x2460;" 
d="M985 361q0 -202 -143 -343q-143 -143 -343 -143q-202 0 -343 143q-143 140 -143 343q0 201 143 343q141 143 343 143q200 0 343 -143t143 -343zM916 361q0 171 -122 295q-124 122 -295 122q-173 0 -295 -122t-122 -295q0 -174 122 -295q122 -122 295 -122q171 0 295 122
q122 122 122 295zM562 30h-100v479q-31 -23 -101 -57v127q75 38 127 101h74v-650z" />
    <glyph glyph-name="uni2461" unicode="&#xf6b2;" 
d="M985 361q0 -202 -143 -343q-143 -143 -343 -143q-202 0 -343 143q-143 140 -143 343q0 201 143 343q141 143 343 143q200 0 343 -143t143 -343zM916 361q0 171 -122 295q-124 122 -295 122q-173 0 -295 -122t-122 -295q0 -174 122 -295q122 -122 295 -122q171 0 295 122
q122 122 122 295zM698 30h-397v102q279 273 279 373q0 79 -83 79q-49 0 -66 -36q-12 -25 -9 -79h-115q2 226 191 226q85 0 140 -50q54 -51 54 -136q0 -125 -229 -363h235v-116z" />
    <glyph glyph-name="uni2461" unicode="&#x2461;" 
d="M985 361q0 -202 -143 -343q-143 -143 -343 -143q-202 0 -343 143q-143 140 -143 343q0 201 143 343q141 143 343 143q200 0 343 -143t143 -343zM916 361q0 171 -122 295q-124 122 -295 122q-173 0 -295 -122t-122 -295q0 -174 122 -295q122 -122 295 -122q171 0 295 122
q122 122 122 295zM698 30h-397v102q279 273 279 373q0 79 -83 79q-49 0 -66 -36q-12 -25 -9 -79h-115q2 226 191 226q85 0 140 -50q54 -51 54 -136q0 -125 -229 -363h235v-116z" />
    <glyph glyph-name="uni2462" unicode="&#xf6b3;" 
d="M985 361q0 -202 -143 -343q-143 -143 -343 -143q-202 0 -343 143q-143 140 -143 343q0 201 143 343q141 143 343 143q200 0 343 -143t143 -343zM916 361q0 171 -122 295q-124 122 -295 122q-173 0 -295 -122t-122 -295q0 -174 122 -295q122 -122 295 -122q171 0 295 122
q122 122 122 295zM715 218q0 -92 -63 -147q-63 -56 -156 -56q-209 0 -212 227h115q0 -58 19 -84q22 -31 78 -31q44 0 74 27q31 28 31 71q0 88 -110 88q-13 0 -51 -6v123q34 -5 57 -5q43 0 67 20q29 21 29 63q0 37 -30 58q-27 18 -65 18q-51 0 -73 -28q-17 -21 -20 -76h-112
q3 215 199 215q92 0 152 -46q63 -51 63 -142q0 -83 -65 -136q73 -58 73 -153z" />
    <glyph glyph-name="uni2462" unicode="&#x2462;" 
d="M985 361q0 -202 -143 -343q-143 -143 -343 -143q-202 0 -343 143q-143 140 -143 343q0 201 143 343q141 143 343 143q200 0 343 -143t143 -343zM916 361q0 171 -122 295q-124 122 -295 122q-173 0 -295 -122t-122 -295q0 -174 122 -295q122 -122 295 -122q171 0 295 122
q122 122 122 295zM715 218q0 -92 -63 -147q-63 -56 -156 -56q-209 0 -212 227h115q0 -58 19 -84q22 -31 78 -31q44 0 74 27q31 28 31 71q0 88 -110 88q-13 0 -51 -6v123q34 -5 57 -5q43 0 67 20q29 21 29 63q0 37 -30 58q-27 18 -65 18q-51 0 -73 -28q-17 -21 -20 -76h-112
q3 215 199 215q92 0 152 -46q63 -51 63 -142q0 -83 -65 -136q73 -58 73 -153z" />
    <glyph glyph-name="uni2463" unicode="&#xf6b4;" 
d="M985 361q0 -202 -143 -343q-143 -143 -343 -143q-202 0 -343 143q-143 140 -143 343q0 201 143 343q141 143 343 143q200 0 343 -143t143 -343zM916 361q0 171 -122 295q-124 122 -295 122q-173 0 -295 -122t-122 -295q0 -174 122 -295q122 -122 295 -122q171 0 295 122
q122 122 122 295zM705 161h-88v-131h-111v131h-253v81l265 438h99v-408h88v-111zM506 272v179l-110 -179h110z" />
    <glyph glyph-name="uni2463" unicode="&#x2463;" 
d="M985 361q0 -202 -143 -343q-143 -143 -343 -143q-202 0 -343 143q-143 140 -143 343q0 201 143 343q141 143 343 143q200 0 343 -143t143 -343zM916 361q0 171 -122 295q-124 122 -295 122q-173 0 -295 -122t-122 -295q0 -174 122 -295q122 -122 295 -122q171 0 295 122
q122 122 122 295zM705 161h-88v-131h-111v131h-253v81l265 438h99v-408h88v-111zM506 272v179l-110 -179h110z" />
    <glyph glyph-name="uni2464" unicode="&#xf6b5;" 
d="M985 361q0 -202 -143 -343q-143 -143 -343 -143q-202 0 -343 143q-143 140 -143 343q0 201 143 343q141 143 343 143q200 0 343 -143t143 -343zM916 361q0 171 -122 295q-124 122 -295 122q-173 0 -295 -122t-122 -295q0 -174 122 -295q122 -122 295 -122q171 0 295 122
q122 122 122 295zM713 252q0 -98 -52 -165q-57 -72 -153 -72q-203 0 -209 215h112q3 -50 22 -74q21 -28 70 -28q47 0 74 40q23 35 23 85q0 46 -23 80q-27 35 -72 35q-72 0 -90 -88h-106l17 400h360v-110h-254l-4 -111q40 23 88 23q90 0 146 -71q51 -66 51 -159z" />
    <glyph glyph-name="uni2464" unicode="&#x2464;" 
d="M985 361q0 -202 -143 -343q-143 -143 -343 -143q-202 0 -343 143q-143 140 -143 343q0 201 143 343q141 143 343 143q200 0 343 -143t143 -343zM916 361q0 171 -122 295q-124 122 -295 122q-173 0 -295 -122t-122 -295q0 -174 122 -295q122 -122 295 -122q171 0 295 122
q122 122 122 295zM713 252q0 -98 -52 -165q-57 -72 -153 -72q-203 0 -209 215h112q3 -50 22 -74q21 -28 70 -28q47 0 74 40q23 35 23 85q0 46 -23 80q-27 35 -72 35q-72 0 -90 -88h-106l17 400h360v-110h-254l-4 -111q40 23 88 23q90 0 146 -71q51 -66 51 -159z" />
    <glyph glyph-name="uni2465" unicode="&#xf6b6;" 
d="M985 361q0 -202 -143 -343q-143 -143 -343 -143q-202 0 -343 143q-143 140 -143 343q0 201 143 343q141 143 343 143q200 0 343 -143t143 -343zM916 361q0 171 -122 295q-124 122 -295 122q-173 0 -295 -122t-122 -295q0 -174 122 -295q122 -122 295 -122q171 0 295 122
q122 122 122 295zM715 248q0 -96 -52 -162q-56 -71 -151 -71q-123 0 -180 99q-47 79 -47 211q0 370 230 370q187 0 193 -206h-114q-3 45 -17 68q-19 27 -61 27q-93 0 -111 -138q47 32 110 32q93 0 149 -69q51 -65 51 -161zM602 245q0 46 -20 81q-24 41 -68 41q-50 0 -80 -39
q-26 -35 -26 -87q0 -44 26 -77q26 -38 69 -38q45 0 73 37q26 34 26 82z" />
    <glyph glyph-name="uni2465" unicode="&#x2465;" 
d="M985 361q0 -202 -143 -343q-143 -143 -343 -143q-202 0 -343 143q-143 140 -143 343q0 201 143 343q141 143 343 143q200 0 343 -143t143 -343zM916 361q0 171 -122 295q-124 122 -295 122q-173 0 -295 -122t-122 -295q0 -174 122 -295q122 -122 295 -122q171 0 295 122
q122 122 122 295zM715 248q0 -96 -52 -162q-56 -71 -151 -71q-123 0 -180 99q-47 79 -47 211q0 370 230 370q187 0 193 -206h-114q-3 45 -17 68q-19 27 -61 27q-93 0 -111 -138q47 32 110 32q93 0 149 -69q51 -65 51 -161zM602 245q0 46 -20 81q-24 41 -68 41q-50 0 -80 -39
q-26 -35 -26 -87q0 -44 26 -77q26 -38 69 -38q45 0 73 37q26 34 26 82z" />
    <glyph glyph-name="uni2466" unicode="&#xf6b7;" 
d="M985 361q0 -202 -143 -343q-143 -143 -343 -143q-202 0 -343 143q-143 140 -143 343q0 201 143 343q141 143 343 143q200 0 343 -143t143 -343zM916 361q0 171 -122 295q-124 122 -295 122q-173 0 -295 -122t-122 -295q0 -174 122 -295q122 -122 295 -122q171 0 295 122
q122 122 122 295zM702 598l-222 -568h-126l218 539h-275v111h405v-82z" />
    <glyph glyph-name="uni2466" unicode="&#x2466;" 
d="M985 361q0 -202 -143 -343q-143 -143 -343 -143q-202 0 -343 143q-143 140 -143 343q0 201 143 343q141 143 343 143q200 0 343 -143t143 -343zM916 361q0 171 -122 295q-124 122 -295 122q-173 0 -295 -122t-122 -295q0 -174 122 -295q122 -122 295 -122q171 0 295 122
q122 122 122 295zM702 598l-222 -568h-126l218 539h-275v111h405v-82z" />
    <glyph glyph-name="uni2467" unicode="&#xf6b8;" 
d="M985 361q0 -202 -143 -343q-143 -143 -343 -143q-202 0 -343 143q-143 140 -143 343q0 201 143 343q141 143 343 143q200 0 343 -143t143 -343zM916 361q0 171 -122 295q-124 122 -295 122q-173 0 -295 -122t-122 -295q0 -174 122 -295q122 -122 295 -122q171 0 295 122
q122 122 122 295zM720 222q0 -96 -62 -152q-62 -55 -159 -55q-100 0 -159 55q-60 56 -60 152q0 91 71 144q-63 51 -63 135q0 89 61 143q57 51 150 51q89 0 149 -51q63 -54 63 -143q0 -84 -63 -135q72 -54 72 -144zM597 501q0 41 -30 63q-28 20 -68 20q-97 0 -97 -83
q0 -79 97 -79q98 0 98 79zM605 222q0 89 -106 89q-105 0 -105 -89q0 -47 28 -71q28 -25 77 -25q48 0 77 25q29 24 29 71z" />
    <glyph glyph-name="uni2467" unicode="&#x2467;" 
d="M985 361q0 -202 -143 -343q-143 -143 -343 -143q-202 0 -343 143q-143 140 -143 343q0 201 143 343q141 143 343 143q200 0 343 -143t143 -343zM916 361q0 171 -122 295q-124 122 -295 122q-173 0 -295 -122t-122 -295q0 -174 122 -295q122 -122 295 -122q171 0 295 122
q122 122 122 295zM720 222q0 -96 -62 -152q-62 -55 -159 -55q-100 0 -159 55q-60 56 -60 152q0 91 71 144q-63 51 -63 135q0 89 61 143q57 51 150 51q89 0 149 -51q63 -54 63 -143q0 -84 -63 -135q72 -54 72 -144zM597 501q0 41 -30 63q-28 20 -68 20q-97 0 -97 -83
q0 -79 97 -79q98 0 98 79zM605 222q0 89 -106 89q-105 0 -105 -89q0 -47 28 -71q28 -25 77 -25q48 0 77 25q29 24 29 71z" />
    <glyph glyph-name="uni2468" unicode="&#xf6b9;" 
d="M985 361q0 -202 -143 -343q-143 -143 -343 -143q-202 0 -343 143q-143 140 -143 343q0 201 143 343q141 143 343 143q200 0 343 -143t143 -343zM916 361q0 171 -122 295q-124 122 -295 122q-173 0 -295 -122t-122 -295q0 -174 122 -295q122 -122 295 -122q171 0 295 122
q122 122 122 295zM725 369q0 -354 -237 -354q-187 0 -194 215h115q0 -58 17 -78q19 -26 75 -26q85 0 106 159q-53 -34 -115 -34q-92 0 -144 62q-54 61 -54 154q0 99 53 161q58 67 154 67q224 0 224 -326zM603 471q0 42 -29 79q-31 34 -73 34q-48 0 -72 -39q-22 -32 -22 -82
q0 -43 24 -71q24 -30 66 -30q44 0 75 32q31 34 31 77z" />
    <glyph glyph-name="uni2468" unicode="&#x2468;" 
d="M985 361q0 -202 -143 -343q-143 -143 -343 -143q-202 0 -343 143q-143 140 -143 343q0 201 143 343q141 143 343 143q200 0 343 -143t143 -343zM916 361q0 171 -122 295q-124 122 -295 122q-173 0 -295 -122t-122 -295q0 -174 122 -295q122 -122 295 -122q171 0 295 122
q122 122 122 295zM725 369q0 -354 -237 -354q-187 0 -194 215h115q0 -58 17 -78q19 -26 75 -26q85 0 106 159q-53 -34 -115 -34q-92 0 -144 62q-54 61 -54 154q0 99 53 161q58 67 154 67q224 0 224 -326zM603 471q0 42 -29 79q-31 34 -73 34q-48 0 -72 -39q-22 -32 -22 -82
q0 -43 24 -71q24 -30 66 -30q44 0 75 32q31 34 31 77z" />
    <glyph glyph-name="uni2469" unicode="&#xf6ba;" 
d="M985 361q0 -202 -143 -343q-143 -143 -343 -143q-202 0 -343 143q-143 140 -143 343q0 201 143 343q141 143 343 143q200 0 343 -143t143 -343zM916 361q0 171 -122 295q-124 122 -295 122q-173 0 -295 -122t-122 -295q0 -174 122 -295q122 -122 295 -122q171 0 295 122
q122 122 122 295zM815 353q0 -131 -33 -215q-48 -123 -156 -123q-109 0 -157 123q-32 81 -32 215t32 217q47 125 157 125q108 0 156 -125q33 -87 33 -217zM367 30h-98v484q-39 -30 -89 -53v126q64 36 114 93h73v-650zM702 353q0 88 -8 136q-18 95 -68 95q-53 0 -70 -95
q-7 -42 -7 -136q0 -98 7 -134q15 -93 70 -93q51 0 69 93q7 46 7 134z" />
    <glyph glyph-name="uni2469" unicode="&#x2469;" 
d="M985 361q0 -202 -143 -343q-143 -143 -343 -143q-202 0 -343 143q-143 140 -143 343q0 201 143 343q141 143 343 143q200 0 343 -143t143 -343zM916 361q0 171 -122 295q-124 122 -295 122q-173 0 -295 -122t-122 -295q0 -174 122 -295q122 -122 295 -122q171 0 295 122
q122 122 122 295zM815 353q0 -131 -33 -215q-48 -123 -156 -123q-109 0 -157 123q-32 81 -32 215t32 217q47 125 157 125q108 0 156 -125q33 -87 33 -217zM367 30h-98v484q-39 -30 -89 -53v126q64 36 114 93h73v-650zM702 353q0 88 -8 136q-18 95 -68 95q-53 0 -70 -95
q-7 -42 -7 -136q0 -98 7 -134q15 -93 70 -93q51 0 69 93q7 46 7 134z" />
    <glyph glyph-name="uni2474" unicode="&#xf6bb;" 
d="M993 361q0 -113 -35 -245q-33 -126 -92 -231h-112q133 277 133 474q0 198 -133 476h112q58 -104 92 -231q35 -131 35 -243zM562 30h-100v479q-31 -23 -101 -57v127q75 38 127 101h74v-650zM246 -115h-112q-60 105 -92 231q-35 127 -35 245t35 243q33 127 92 231h112
q-133 -275 -133 -476t133 -474z" />
    <glyph glyph-name="uni2474" unicode="&#x2474;" 
d="M993 361q0 -113 -35 -245q-33 -126 -92 -231h-112q133 277 133 474q0 198 -133 476h112q58 -104 92 -231q35 -131 35 -243zM562 30h-100v479q-31 -23 -101 -57v127q75 38 127 101h74v-650zM246 -115h-112q-60 105 -92 231q-35 127 -35 245t35 243q33 127 92 231h112
q-133 -275 -133 -476t133 -474z" />
    <glyph glyph-name="uni2475" unicode="&#xf6bc;" 
d="M993 361q0 -113 -35 -245q-33 -126 -92 -231h-112q133 277 133 474q0 198 -133 476h112q58 -104 92 -231q35 -131 35 -243zM698 30h-397v102q279 273 279 373q0 79 -83 79q-49 0 -66 -36q-12 -25 -9 -79h-115q2 226 191 226q85 0 140 -50q54 -51 54 -136
q0 -125 -229 -363h235v-116zM246 -115h-112q-60 105 -92 231q-35 127 -35 245t35 243q33 127 92 231h112q-133 -275 -133 -476t133 -474z" />
    <glyph glyph-name="uni2475" unicode="&#x2475;" 
d="M993 361q0 -113 -35 -245q-33 -126 -92 -231h-112q133 277 133 474q0 198 -133 476h112q58 -104 92 -231q35 -131 35 -243zM698 30h-397v102q279 273 279 373q0 79 -83 79q-49 0 -66 -36q-12 -25 -9 -79h-115q2 226 191 226q85 0 140 -50q54 -51 54 -136
q0 -125 -229 -363h235v-116zM246 -115h-112q-60 105 -92 231q-35 127 -35 245t35 243q33 127 92 231h112q-133 -275 -133 -476t133 -474z" />
    <glyph glyph-name="uni2476" unicode="&#xf6bd;" 
d="M993 361q0 -113 -35 -245q-33 -126 -92 -231h-112q133 277 133 474q0 198 -133 476h112q58 -104 92 -231q35 -131 35 -243zM715 218q0 -92 -63 -147q-63 -56 -156 -56q-209 0 -212 227h115q0 -58 19 -84q22 -31 78 -31q44 0 74 27q31 28 31 71q0 88 -110 88q-13 0 -51 -6
v123q34 -5 57 -5q43 0 67 20q29 21 29 63q0 37 -30 58q-27 18 -65 18q-51 0 -73 -28q-17 -21 -20 -76h-112q3 215 199 215q92 0 152 -46q63 -51 63 -142q0 -83 -65 -136q73 -58 73 -153zM246 -115h-112q-60 105 -92 231q-35 127 -35 245t35 243q33 127 92 231h112
q-133 -275 -133 -476t133 -474z" />
    <glyph glyph-name="uni2476" unicode="&#x2476;" 
d="M993 361q0 -113 -35 -245q-33 -126 -92 -231h-112q133 277 133 474q0 198 -133 476h112q58 -104 92 -231q35 -131 35 -243zM715 218q0 -92 -63 -147q-63 -56 -156 -56q-209 0 -212 227h115q0 -58 19 -84q22 -31 78 -31q44 0 74 27q31 28 31 71q0 88 -110 88q-13 0 -51 -6
v123q34 -5 57 -5q43 0 67 20q29 21 29 63q0 37 -30 58q-27 18 -65 18q-51 0 -73 -28q-17 -21 -20 -76h-112q3 215 199 215q92 0 152 -46q63 -51 63 -142q0 -83 -65 -136q73 -58 73 -153zM246 -115h-112q-60 105 -92 231q-35 127 -35 245t35 243q33 127 92 231h112
q-133 -275 -133 -476t133 -474z" />
    <glyph glyph-name="uni2477" unicode="&#xf6be;" 
d="M993 361q0 -113 -35 -245q-33 -126 -92 -231h-112q133 277 133 474q0 198 -133 476h112q58 -104 92 -231q35 -131 35 -243zM705 161h-88v-131h-111v131h-253v81l265 438h99v-408h88v-111zM246 -115h-112q-60 105 -92 231q-35 127 -35 245t35 243q33 127 92 231h112
q-133 -275 -133 -476t133 -474zM506 272v179l-110 -179h110z" />
    <glyph glyph-name="uni2477" unicode="&#x2477;" 
d="M993 361q0 -113 -35 -245q-33 -126 -92 -231h-112q133 277 133 474q0 198 -133 476h112q58 -104 92 -231q35 -131 35 -243zM705 161h-88v-131h-111v131h-253v81l265 438h99v-408h88v-111zM246 -115h-112q-60 105 -92 231q-35 127 -35 245t35 243q33 127 92 231h112
q-133 -275 -133 -476t133 -474zM506 272v179l-110 -179h110z" />
    <glyph glyph-name="uni2478" unicode="&#xf6bf;" 
d="M993 361q0 -113 -35 -245q-33 -126 -92 -231h-112q133 277 133 474q0 198 -133 476h112q58 -104 92 -231q35 -131 35 -243zM713 252q0 -98 -52 -165q-57 -72 -153 -72q-203 0 -209 215h112q3 -50 22 -74q21 -28 70 -28q47 0 74 40q23 35 23 85q0 46 -23 80q-27 35 -72 35
q-72 0 -90 -88h-106l17 400h360v-110h-254l-4 -111q40 23 88 23q90 0 146 -71q51 -66 51 -159zM246 -115h-112q-60 105 -92 231q-35 127 -35 245t35 243q33 127 92 231h112q-133 -275 -133 -476t133 -474z" />
    <glyph glyph-name="uni2478" unicode="&#x2478;" 
d="M993 361q0 -113 -35 -245q-33 -126 -92 -231h-112q133 277 133 474q0 198 -133 476h112q58 -104 92 -231q35 -131 35 -243zM713 252q0 -98 -52 -165q-57 -72 -153 -72q-203 0 -209 215h112q3 -50 22 -74q21 -28 70 -28q47 0 74 40q23 35 23 85q0 46 -23 80q-27 35 -72 35
q-72 0 -90 -88h-106l17 400h360v-110h-254l-4 -111q40 23 88 23q90 0 146 -71q51 -66 51 -159zM246 -115h-112q-60 105 -92 231q-35 127 -35 245t35 243q33 127 92 231h112q-133 -275 -133 -476t133 -474z" />
    <glyph glyph-name="uni2479" unicode="&#xf6c0;" 
d="M993 361q0 -113 -35 -245q-33 -126 -92 -231h-112q133 277 133 474q0 198 -133 476h112q58 -104 92 -231q35 -131 35 -243zM715 248q0 -96 -52 -162q-56 -71 -151 -71q-123 0 -180 99q-47 79 -47 211q0 370 230 370q187 0 193 -206h-114q-3 45 -17 68q-19 27 -61 27
q-93 0 -111 -138q47 32 110 32q93 0 149 -69q51 -65 51 -161zM246 -115h-112q-60 105 -92 231q-35 127 -35 245t35 243q33 127 92 231h112q-133 -275 -133 -476t133 -474zM602 245q0 46 -20 81q-24 41 -68 41q-50 0 -80 -39q-26 -35 -26 -87q0 -44 26 -77q26 -38 69 -38
q45 0 73 37q26 34 26 82z" />
    <glyph glyph-name="uni2479" unicode="&#x2479;" 
d="M993 361q0 -113 -35 -245q-33 -126 -92 -231h-112q133 277 133 474q0 198 -133 476h112q58 -104 92 -231q35 -131 35 -243zM715 248q0 -96 -52 -162q-56 -71 -151 -71q-123 0 -180 99q-47 79 -47 211q0 370 230 370q187 0 193 -206h-114q-3 45 -17 68q-19 27 -61 27
q-93 0 -111 -138q47 32 110 32q93 0 149 -69q51 -65 51 -161zM246 -115h-112q-60 105 -92 231q-35 127 -35 245t35 243q33 127 92 231h112q-133 -275 -133 -476t133 -474zM602 245q0 46 -20 81q-24 41 -68 41q-50 0 -80 -39q-26 -35 -26 -87q0 -44 26 -77q26 -38 69 -38
q45 0 73 37q26 34 26 82z" />
    <glyph glyph-name="uni247A" unicode="&#xf6c1;" 
d="M993 361q0 -113 -35 -245q-33 -126 -92 -231h-112q133 277 133 474q0 198 -133 476h112q58 -104 92 -231q35 -131 35 -243zM702 598l-222 -568h-126l218 539h-275v111h405v-82zM246 -115h-112q-60 105 -92 231q-35 127 -35 245t35 243q33 127 92 231h112
q-133 -275 -133 -476t133 -474z" />
    <glyph glyph-name="uni247A" unicode="&#x247a;" 
d="M993 361q0 -113 -35 -245q-33 -126 -92 -231h-112q133 277 133 474q0 198 -133 476h112q58 -104 92 -231q35 -131 35 -243zM702 598l-222 -568h-126l218 539h-275v111h405v-82zM246 -115h-112q-60 105 -92 231q-35 127 -35 245t35 243q33 127 92 231h112
q-133 -275 -133 -476t133 -474z" />
    <glyph glyph-name="uni247B" unicode="&#xf6c2;" 
d="M993 361q0 -113 -35 -245q-33 -126 -92 -231h-112q133 277 133 474q0 198 -133 476h112q58 -104 92 -231q35 -131 35 -243zM720 222q0 -96 -62 -152q-62 -55 -159 -55q-100 0 -159 55q-60 56 -60 152q0 91 71 144q-63 51 -63 135q0 89 61 143q57 51 150 51q89 0 149 -51
q63 -54 63 -143q0 -84 -63 -135q72 -54 72 -144zM246 -115h-112q-60 105 -92 231q-35 127 -35 245t35 243q33 127 92 231h112q-133 -275 -133 -476t133 -474zM597 501q0 41 -30 63q-28 20 -68 20q-97 0 -97 -83q0 -79 97 -79q98 0 98 79zM605 222q0 89 -106 89
q-105 0 -105 -89q0 -47 28 -71q28 -25 77 -25q48 0 77 25q29 24 29 71z" />
    <glyph glyph-name="uni247B" unicode="&#x247b;" 
d="M993 361q0 -113 -35 -245q-33 -126 -92 -231h-112q133 277 133 474q0 198 -133 476h112q58 -104 92 -231q35 -131 35 -243zM720 222q0 -96 -62 -152q-62 -55 -159 -55q-100 0 -159 55q-60 56 -60 152q0 91 71 144q-63 51 -63 135q0 89 61 143q57 51 150 51q89 0 149 -51
q63 -54 63 -143q0 -84 -63 -135q72 -54 72 -144zM246 -115h-112q-60 105 -92 231q-35 127 -35 245t35 243q33 127 92 231h112q-133 -275 -133 -476t133 -474zM597 501q0 41 -30 63q-28 20 -68 20q-97 0 -97 -83q0 -79 97 -79q98 0 98 79zM605 222q0 89 -106 89
q-105 0 -105 -89q0 -47 28 -71q28 -25 77 -25q48 0 77 25q29 24 29 71z" />
    <glyph glyph-name="uni247C" unicode="&#xf6c3;" 
d="M993 361q0 -113 -35 -245q-33 -126 -92 -231h-112q133 277 133 474q0 198 -133 476h112q58 -104 92 -231q35 -131 35 -243zM725 369q0 -354 -237 -354q-187 0 -194 215h115q0 -58 17 -78q19 -26 75 -26q85 0 106 159q-53 -34 -115 -34q-92 0 -144 62q-54 61 -54 154
q0 99 53 161q58 67 154 67q224 0 224 -326zM246 -115h-112q-60 105 -92 231q-35 127 -35 245t35 243q33 127 92 231h112q-133 -275 -133 -476t133 -474zM603 471q0 42 -29 79q-31 34 -73 34q-48 0 -72 -39q-22 -32 -22 -82q0 -43 24 -71q24 -30 66 -30q44 0 75 32
q31 34 31 77z" />
    <glyph glyph-name="uni247C" unicode="&#x247c;" 
d="M993 361q0 -113 -35 -245q-33 -126 -92 -231h-112q133 277 133 474q0 198 -133 476h112q58 -104 92 -231q35 -131 35 -243zM725 369q0 -354 -237 -354q-187 0 -194 215h115q0 -58 17 -78q19 -26 75 -26q85 0 106 159q-53 -34 -115 -34q-92 0 -144 62q-54 61 -54 154
q0 99 53 161q58 67 154 67q224 0 224 -326zM246 -115h-112q-60 105 -92 231q-35 127 -35 245t35 243q33 127 92 231h112q-133 -275 -133 -476t133 -474zM603 471q0 42 -29 79q-31 34 -73 34q-48 0 -72 -39q-22 -32 -22 -82q0 -43 24 -71q24 -30 66 -30q44 0 75 32
q31 34 31 77z" />
    <glyph glyph-name="uni247D" unicode="&#xf6c4;" 
d="M993 361q0 -113 -35 -245q-33 -126 -92 -231h-112q133 277 133 474q0 198 -133 476h112q58 -104 92 -231q35 -131 35 -243zM815 353q0 -131 -33 -215q-48 -123 -156 -123q-109 0 -157 123q-32 81 -32 215t32 217q47 125 157 125q108 0 156 -125q33 -87 33 -217zM367 30
h-98v484q-39 -30 -89 -53v126q64 36 114 93h73v-650zM246 -115h-112q-60 105 -92 231q-35 127 -35 245t35 243q33 127 92 231h112q-133 -275 -133 -476t133 -474zM702 353q0 88 -8 136q-18 95 -68 95q-53 0 -70 -95q-7 -42 -7 -136q0 -98 7 -134q15 -93 70 -93q51 0 69 93
q7 46 7 134z" />
    <glyph glyph-name="uni247D" unicode="&#x247d;" 
d="M993 361q0 -113 -35 -245q-33 -126 -92 -231h-112q133 277 133 474q0 198 -133 476h112q58 -104 92 -231q35 -131 35 -243zM815 353q0 -131 -33 -215q-48 -123 -156 -123q-109 0 -157 123q-32 81 -32 215t32 217q47 125 157 125q108 0 156 -125q33 -87 33 -217zM367 30
h-98v484q-39 -30 -89 -53v126q64 36 114 93h73v-650zM246 -115h-112q-60 105 -92 231q-35 127 -35 245t35 243q33 127 92 231h112q-133 -275 -133 -476t133 -474zM702 353q0 88 -8 136q-18 95 -68 95q-53 0 -70 -95q-7 -42 -7 -136q0 -98 7 -134q15 -93 70 -93q51 0 69 93
q7 46 7 134z" />
    <glyph glyph-name="SF100000" unicode="&#x2500;" 
d="M1000 345h-1000v30h1000v-30z" />
    <glyph glyph-name="SF110000" unicode="&#x2502;" 
d="M515 -140h-30v1000h30v-1000z" />
    <glyph glyph-name="SF010000" unicode="&#x250c;" 
d="M1000 345h-485v-485h-30v515h515v-30z" />
    <glyph glyph-name="SF030000" unicode="&#x2510;" 
d="M515 -140h-30v485h-485v30h515v-515z" />
    <glyph glyph-name="SF020000" unicode="&#x2514;" 
d="M1000 345h-515v515h30v-485h485v-30z" />
    <glyph glyph-name="SF040000" unicode="&#x2518;" 
d="M515 345h-515v30h485v485h30v-515z" />
    <glyph glyph-name="SF080000" unicode="&#x251c;" 
d="M1000 345h-485v-485h-30v1000h30v-485h485v-30z" />
    <glyph glyph-name="SF090000" unicode="&#x2524;" 
d="M515 -140h-30v485h-485v30h485v485h30v-1000z" />
    <glyph glyph-name="SF060000" unicode="&#x252c;" 
d="M1000 345h-485v-485h-30v485h-485v30h1000v-30z" />
    <glyph glyph-name="SF070000" unicode="&#x2534;" 
d="M1000 345h-1000v30h485v485h30v-485h485v-30z" />
    <glyph glyph-name="SF050000" unicode="&#x253c;" 
d="M1000 345h-485v-485h-30v485h-485v30h485v485h30v-485h485v-30z" />
    <glyph glyph-name="CNS1.14091" unicode="&#x2550;" 
d="M1000 387h-1000v30h1000v-30zM1000 303h-1000v30h1000v-30z" />
    <glyph glyph-name="SF240000" unicode="&#x2551;" 
d="M557 -140h-30v1000h30v-1000zM473 -140h-30v1000h30v-1000z" />
    <glyph glyph-name="SF510000" unicode="&#x2552;" 
d="M1000 303h-485v-443h-30v557h515v-30h-485v-54h485v-30z" />
    <glyph glyph-name="SF520000" unicode="&#x2553;" 
d="M1000 345h-443v-485h-30v485h-54v-485h-30v515h557v-30z" />
    <glyph glyph-name="SF390000" unicode="&#x2554;" 
d="M1000 387h-527v-527h-30v557h557v-30zM1000 303h-443v-443h-30v473h473v-30z" />
    <glyph glyph-name="SF220000" unicode="&#x2555;" 
d="M515 -140h-30v443h-485v30h485v54h-485v30h515v-557z" />
    <glyph glyph-name="SF210000" unicode="&#x2556;" 
d="M557 -140h-30v485h-54v-485h-30v485h-443v30h557v-515z" />
    <glyph glyph-name="SF250000" unicode="&#x2557;" 
d="M557 -140h-30v527h-527v30h557v-557zM473 -140h-30v443h-443v30h473v-473z" />
    <glyph glyph-name="SF500000" unicode="&#x2558;" 
d="M1000 303h-515v557h30v-443h485v-30h-485v-54h485v-30z" />
    <glyph glyph-name="SF490000" unicode="&#x2559;" 
d="M1000 345h-557v515h30v-485h54v485h30v-485h443v-30z" />
    <glyph glyph-name="SF380000" unicode="&#x255a;" 
d="M1000 387h-473v473h30v-443h443v-30zM1000 303h-557v557h30v-527h527v-30z" />
    <glyph glyph-name="SF280000" unicode="&#x255b;" 
d="M515 303h-515v30h485v54h-485v30h485v443h30v-557z" />
    <glyph glyph-name="SF270000" unicode="&#x255c;" 
d="M557 345h-557v30h443v485h30v-485h54v485h30v-515z" />
    <glyph glyph-name="SF260000" unicode="&#x255d;" 
d="M473 387h-473v30h443v443h30v-473zM557 303h-557v30h527v527h30v-557z" />
    <glyph glyph-name="CNS1.14075" unicode="&#x255e;" 
d="M1000 303h-485v-443h-30v1000h30v-443h485v-30h-485v-54h485v-30z" />
    <glyph glyph-name="SF370000" unicode="&#x255f;" 
d="M1000 345h-443v-485h-30v1000h30v-485h443v-30zM473 -140h-30v1000h30v-1000z" />
    <glyph glyph-name="SF420000" unicode="&#x2560;" 
d="M1000 387h-473v473h30v-443h443v-30zM1000 303h-443v-443h-30v473h473v-30zM473 -140h-30v1000h30v-1000z" />
    <glyph glyph-name="CNS1.14077" unicode="&#x2561;" 
d="M515 -140h-30v443h-485v30h485v54h-485v30h485v443h30v-1000z" />
    <glyph glyph-name="SF200000" unicode="&#x2562;" 
d="M557 -140h-30v1000h30v-1000zM473 -140h-30v485h-443v30h443v485h30v-1000z" />
    <glyph glyph-name="SF230000" unicode="&#x2563;" 
d="M557 -140h-30v1000h30v-1000zM473 387h-473v30h443v443h30v-473zM473 -140h-30v443h-443v30h473v-473z" />
    <glyph glyph-name="SF470000" unicode="&#x2564;" 
d="M1000 387h-1000v30h1000v-30zM1000 303h-485v-443h-30v443h-485v30h1000v-30z" />
    <glyph glyph-name="SF480000" unicode="&#x2565;" 
d="M1000 345h-443v-485h-30v485h-54v-485h-30v485h-443v30h1000v-30z" />
    <glyph glyph-name="SF410000" unicode="&#x2566;" 
d="M1000 387h-1000v30h1000v-30zM1000 303h-443v-443h-30v473h473v-30zM473 -140h-30v443h-443v30h473v-473z" />
    <glyph glyph-name="SF450000" unicode="&#x2567;" 
d="M1000 387h-1000v30h485v443h30v-443h485v-30zM1000 303h-1000v30h1000v-30z" />
    <glyph glyph-name="SF460000" unicode="&#x2568;" 
d="M1000 345h-1000v30h443v485h30v-485h54v485h30v-485h443v-30z" />
    <glyph glyph-name="SF400000" unicode="&#x2569;" 
d="M1000 387h-473v473h30v-443h443v-30zM473 387h-473v30h443v443h30v-473zM1000 303h-1000v30h1000v-30z" />
    <glyph glyph-name="CNS1.14076" unicode="&#x256a;" 
d="M1000 387h-1000v30h485v443h30v-443h485v-30zM1000 303h-485v-443h-30v443h-485v30h1000v-30z" />
    <glyph glyph-name="SF530000" unicode="&#x256b;" 
d="M1000 345h-443v-485h-30v1000h30v-485h443v-30zM473 -140h-30v485h-443v30h443v485h30v-1000z" />
    <glyph glyph-name="SF440000" unicode="&#x256c;" 
d="M1000 387h-473v473h30v-443h443v-30zM473 387h-473v30h443v443h30v-473zM1000 303h-443v-443h-30v473h473v-30zM473 -140h-30v443h-443v30h473v-473z" />
    <glyph glyph-name="uni256D" unicode="&#x256d;" 
d="M1000 345h-189q-130 0 -213 -83t-83 -215v-187h-30v204q0 130 90 220q91 91 220 91h205v-30z" />
    <glyph glyph-name="uni256E" unicode="&#x256e;" 
d="M515 -140h-30v187q0 130 -83 215q-85 83 -213 83h-189v30h205q129 0 220 -91q90 -90 90 -220v-204z" />
    <glyph glyph-name="uni256F" unicode="&#x256f;" 
d="M515 656q0 -130 -90 -220q-90 -91 -220 -91h-205v30h189q130 0 213 83q83 85 83 215v187h30v-204z" />
    <glyph glyph-name="uni2570" unicode="&#x2570;" 
d="M1000 345h-205q-130 0 -220 91q-90 90 -90 220v204h30v-187q0 -132 83 -215q82 -83 213 -83h189v-30z" />
    <glyph glyph-name="uni2571" unicode="&#x2571;" 
d="M1000 837l-977 -977h-23v20l980 980h20v-23z" />
    <glyph glyph-name="uni2572" unicode="&#x2572;" 
d="M1000 -140h-23l-977 977v23h20l980 -980v-20z" />
    <glyph glyph-name="uni2573" unicode="&#x2573;" 
d="M1000 -140h-23l-477 477l-477 -477h-23v20l479 479l-479 478v23h20l480 -480l480 480h20v-23l-478 -478l478 -479v-20z" />
    <glyph glyph-name="uni2574" unicode="&#x2574;" 
d="M1000 -130h-1000v125h1000v-125z" />
    <glyph glyph-name="uni2581" unicode="&#x2581;" 
d="M1000 -140h-1000v129h1000v-129z" />
    <glyph glyph-name="uni2582" unicode="&#x2582;" 
d="M1000 -140h-1000v254h1000v-254z" />
    <glyph glyph-name="uni2583" unicode="&#x2583;" 
d="M1000 -140h-1000v379h1000v-379z" />
    <glyph glyph-name="dnblock" unicode="&#x2584;" 
d="M1000 -140h-1000v501h1000v-501z" />
    <glyph glyph-name="uni2585" unicode="&#x2585;" 
d="M1000 -140h-1000v626h1000v-626z" />
    <glyph glyph-name="uni2586" unicode="&#x2586;" 
d="M1000 -140h-1000v751h1000v-751z" />
    <glyph glyph-name="uni2587" unicode="&#x2587;" 
d="M1000 -140h-1000v876h1000v-876z" />
    <glyph glyph-name="block" unicode="&#x2588;" 
d="M1000 -140h-1000v1000h1000v-1000z" />
    <glyph glyph-name="uni2589" unicode="&#x2589;" 
d="M867 -140h-867v1000h867v-1000z" />
    <glyph glyph-name="uni258A" unicode="&#x258a;" 
d="M746 -140h-746v1000h746v-1000z" />
    <glyph glyph-name="uni258B" unicode="&#x258b;" 
d="M625 -140h-625v1000h625v-1000z" />
    <glyph glyph-name="lfblock" unicode="&#x258c;" 
d="M500 -140h-500v1000h500v-1000z" />
    <glyph glyph-name="uni258D" unicode="&#x258d;" 
d="M375 -140h-375v1000h375v-1000z" />
    <glyph glyph-name="uni258E" unicode="&#x258e;" 
d="M250 -140h-250v1000h250v-1000z" />
    <glyph glyph-name="uni258F" unicode="&#x258f;" 
d="M125 -140h-125v1000h125v-1000z" />
    <glyph glyph-name="dkshade" unicode="&#xffed;" 
d="M913 -53h-826v826h826v-826z" />
    <glyph glyph-name="dkshade" unicode="&#x2593;" 
d="M913 -53h-826v826h826v-826z" />
    <glyph glyph-name="uni2594" unicode="&#x2594;" 
d="M1000 740h-1000v120h1000v-120z" />
    <glyph glyph-name="uni2595" unicode="&#x2595;" 
d="M1000 -140h-120v1000h120v-1000z" />
    <glyph glyph-name="filledbox" unicode="&#x25a0;" 
d="M876 -13h-752v754h752v-754z" />
    <glyph glyph-name="H22073" unicode="&#x25a1;" 
d="M876 -13h-752v754h752v-754zM774 89v550h-548v-550h548z" />
    <glyph glyph-name="triagup" unicode="&#x25b2;" 
d="M949 -19h-898l450 773z" />
    <glyph glyph-name="uni25B3" unicode="&#x25b3;" 
d="M949 -19h-898l450 773zM775 84l-275 465l-275 -465h550z" />
    <glyph glyph-name="triagdn" unicode="&#x25bc;" 
d="M949 739l-448 -773l-450 773h898z" />
    <glyph glyph-name="uni25BD" unicode="&#x25bd;" 
d="M949 739l-448 -773l-450 773h898zM775 636h-550l275 -465z" />
    <glyph glyph-name="uni25C6" unicode="&#x25c6;" 
d="M946 360l-446 -446l-446 446l446 446z" />
    <glyph glyph-name="uni25C7" unicode="&#x25c7;" 
d="M946 360l-446 -446l-446 446l446 446zM798 360l-298 298l-298 -298l298 -298z" />
    <glyph glyph-name="circle" unicode="&#x25cb;" 
d="M942 360q0 -182 -130 -312t-312 -130t-312 130q-130 129 -130 312t130 312q130 130 312 130t312 -130t130 -312zM835 360q0 139 -99 238q-100 98 -237 98q-139 0 -237 -98q-99 -99 -99 -238t99 -238q97 -98 237 -98q139 0 237 98q99 99 99 238z" />
    <glyph glyph-name="uni25CE" unicode="&#x25ce;" 
d="M942 360q0 -182 -130 -312t-312 -130t-312 130q-130 129 -130 312t130 312q130 130 312 130t312 -130t130 -312zM835 360q0 139 -99 238q-100 98 -237 98q-139 0 -237 -98q-99 -99 -99 -238t99 -238q97 -98 237 -98q139 0 237 98q99 99 99 238zM779 360q0 -117 -81 -198
q-82 -81 -198 -81q-117 0 -198 81t-81 198q0 116 81 198q81 81 198 81q116 0 198 -81q81 -82 81 -198zM677 360q0 72 -52 126q-54 52 -126 52q-73 0 -125 -52t-52 -126q0 -75 52 -126q51 -52 125 -52t126 52t52 126z" />
    <glyph glyph-name="H18533" unicode="&#x25cf;" 
d="M942 360q0 -182 -130 -312t-312 -130t-312 130q-130 129 -130 312t130 312q130 130 312 130t312 -130t130 -312z" />
    <glyph glyph-name="uni25E2" unicode="&#x25e2;" 
d="M1000 -140h-1000l1000 1000v-1000z" />
    <glyph glyph-name="uni25E3" unicode="&#x25e3;" 
d="M1000 -140h-1000v1000z" />
    <glyph glyph-name="uni25E4" unicode="&#x25e4;" 
d="M1000 860l-1000 -1000v1000h1000z" />
    <glyph glyph-name="uni25E5" unicode="&#x25e5;" 
d="M1000 -140l-1000 1000h1000v-1000z" />
    <glyph glyph-name="uni2605" unicode="&#x2605;" 
d="M967 477l-281 -217l115 -348l-300 220l-301 -220l115 348l-282 217h352l116 346l113 -346h353z" />
    <glyph glyph-name="uni2606" unicode="&#x2606;" 
d="M967 477l-281 -217l115 -348l-300 220l-301 -220l115 348l-282 217h352l116 346l113 -346h353zM696 381h-149l-48 144l-48 -144h-146l119 -93l-44 -133l120 89l121 -90l-44 134z" />
    <glyph glyph-name="female" unicode="&#x2640;" 
d="M781 122h-218v-165h-126v165h-218v126h218v52q-77 20 -125 83t-48 144q0 98 69 167t167 69t167 -69t69 -167q0 -81 -48 -144q-50 -63 -125 -83v-52h218v-126zM616 527q0 46 -34 82q-36 34 -82 34q-48 0 -82 -34t-34 -82q0 -49 34 -82q33 -34 82 -34q48 0 82 34t34 82z
" />
    <glyph glyph-name="male" unicode="&#x2642;" 
d="M775 575l-76 -110l-135 96l-1 -141q75 -21 124 -83q49 -64 49 -144q0 -97 -70 -167q-69 -69 -166 -69q-98 0 -167 69t-69 167q0 81 48 144q47 62 125 83v141l-135 -96l-76 110l274 191zM616 193q0 46 -34 82q-36 34 -82 34q-48 0 -82 -34t-34 -82q0 -49 34 -82
q33 -34 82 -34q48 0 82 34t34 82z" />
    <glyph glyph-name="uni273D" unicode="&#xf6f6;" 
d="M795 268l-70 -119l-173 118l15 -193h-139l16 192l-169 -122l-69 124l184 92l-184 91l66 120l172 -117l-16 189h139l-15 -189l175 116l64 -124l-185 -86z" />
    <glyph glyph-name="uni273D" unicode="&#x273d;" 
d="M795 268l-70 -119l-173 118l15 -193h-139l16 192l-169 -122l-69 124l184 92l-184 91l66 120l172 -117l-16 189h139l-15 -189l175 116l64 -124l-185 -86z" />
    <glyph glyph-name="uniF820" unicode="&#xf820;" 
 />
    <glyph glyph-name="uniF820" unicode="&#x2e80;" 
 />
    <glyph glyph-name="uniF821" unicode="&#xf821;" 
 />
    <glyph glyph-name="uniF821" unicode="&#x2e84;" 
 />
    <glyph glyph-name="uniF822" unicode="&#xf822;" 
 />
    <glyph glyph-name="uniF822" unicode="&#x2e86;" 
 />
    <glyph glyph-name="uniF823" unicode="&#xf823;" 
 />
    <glyph glyph-name="uniF823" unicode="&#x2e87;" 
 />
    <glyph glyph-name="uniF824" unicode="&#xf824;" 
 />
    <glyph glyph-name="uniF824" unicode="&#x2e88;" 
 />
    <glyph glyph-name="uniF825" unicode="&#xf825;" 
 />
    <glyph glyph-name="uniF825" unicode="&#x2e8a;" 
 />
    <glyph glyph-name="uniF826" unicode="&#xf826;" 
 />
    <glyph glyph-name="uniF826" unicode="&#x2e8c;" 
 />
    <glyph glyph-name="uniF827" unicode="&#xf827;" 
 />
    <glyph glyph-name="uniF827" unicode="&#x2e8d;" 
 />
    <glyph glyph-name="uniF828" unicode="&#xf828;" 
 />
    <glyph glyph-name="uniF828" unicode="&#x2e95;" 
 />
    <glyph glyph-name="uniF829" unicode="&#xf829;" 
 />
    <glyph glyph-name="uniF829" unicode="&#x2e9c;" 
 />
    <glyph glyph-name="uniF82B" unicode="&#xf82b;" 
 />
    <glyph glyph-name="uniF82B" unicode="&#x2ea5;" 
 />
    <glyph glyph-name="uniF82C" unicode="&#xf82c;" 
 />
    <glyph glyph-name="uniF82C" unicode="&#x2ea7;" 
 />
    <glyph glyph-name="uniF82D" unicode="&#xf82d;" 
 />
    <glyph glyph-name="uniF82D" unicode="&#x2eaa;" 
 />
    <glyph glyph-name="uniF82E" unicode="&#xf82e;" 
 />
    <glyph glyph-name="uniF82E" unicode="&#x2eac;" 
 />
    <glyph glyph-name="uniF82F" unicode="&#xf82f;" 
 />
    <glyph glyph-name="uniF82F" unicode="&#x2eae;" 
 />
    <glyph glyph-name="uniF830" unicode="&#xf830;" 
 />
    <glyph glyph-name="uniF830" unicode="&#x2eb6;" 
 />
    <glyph glyph-name="uniF831" unicode="&#xf831;" 
 />
    <glyph glyph-name="uniF831" unicode="&#x2ebc;" 
 />
    <glyph glyph-name="uniF832" unicode="&#xf832;" 
 />
    <glyph glyph-name="uniF832" unicode="&#x2ebe;" 
 />
    <glyph glyph-name="uniF834" unicode="&#xf834;" 
 />
    <glyph glyph-name="uniF834" unicode="&#x2eca;" 
 />
    <glyph glyph-name="uniF835" unicode="&#xf835;" 
 />
    <glyph glyph-name="uniF835" unicode="&#x2ecc;" 
 />
    <glyph glyph-name="uniF836" unicode="&#xf836;" 
 />
    <glyph glyph-name="uniF836" unicode="&#x2ecd;" 
 />
    <glyph glyph-name="uniF837" unicode="&#xf837;" 
 />
    <glyph glyph-name="uniF837" unicode="&#x2ecf;" 
 />
    <glyph glyph-name="uniF838" unicode="&#xf838;" 
 />
    <glyph glyph-name="uniF838" unicode="&#x2ed6;" 
 />
    <glyph glyph-name="uniF839" unicode="&#xf839;" 
 />
    <glyph glyph-name="uniF839" unicode="&#x2ed7;" 
 />
    <glyph glyph-name="uniF83A" unicode="&#xf83a;" 
 />
    <glyph glyph-name="uniF83A" unicode="&#x2ede;" 
 />
    <glyph glyph-name="uni4E00" unicode="&#x4e00;" 
d="M82 450h832v-117h-832v117z" />
    <glyph glyph-name="uni4E00" unicode="&#x2f00;" 
d="M82 450h832v-117h-832v117z" />
    <glyph glyph-name="uni4E28" unicode="&#x4e28;" 
d="M450 825l102 -15q26 -3 26 -18q0 -18 -17 -23l-22 -9v-671v-161q0 -9 -10 -16q-15 -9 -45 -9q-24 0 -26 19l3 167v601q0 88 -11 135z" />
    <glyph glyph-name="uni4E28" unicode="&#x2f01;" 
d="M450 825l102 -15q26 -3 26 -18q0 -18 -17 -23l-22 -9v-671v-161q0 -9 -10 -16q-15 -9 -45 -9q-24 0 -26 19l3 167v601q0 88 -11 135z" />
    <glyph glyph-name="uni4E36" unicode="&#xf6cf;" 
d="M339 556q210 -112 391 -258l-94 -105q-170 155 -375 265z" />
    <glyph glyph-name="uni4E36" unicode="&#x4e36;" 
d="M339 556q210 -112 391 -258l-94 -105q-170 155 -375 265z" />
    <glyph glyph-name="uni4E36" unicode="&#x2f02;" 
d="M339 556q210 -112 391 -258l-94 -105q-170 155 -375 265z" />
    <glyph glyph-name="uni4E3F" unicode="&#xf6d0;" 
d="M453 767h117q0 -268 -3 -278q0 -222 -80 -367q-79 -135 -222 -211l-78 98q135 71 200 193q63 117 63 325q3 9 3 240z" />
    <glyph glyph-name="uni4E3F" unicode="&#x4e3f;" 
d="M453 767h117q0 -268 -3 -278q0 -222 -80 -367q-79 -135 -222 -211l-78 98q135 71 200 193q63 117 63 325q3 9 3 240z" />
    <glyph glyph-name="uni4E3F" unicode="&#x2f03;" 
d="M453 767h117q0 -268 -3 -278q0 -222 -80 -367q-79 -135 -222 -211l-78 98q135 71 200 193q63 117 63 325q3 9 3 240z" />
    <glyph glyph-name="uni4E59" unicode="&#x4e59;" 
d="M125 743h699v-101q-427 -343 -542 -463q-48 -54 -48 -96q0 -22 67 -28q69 -7 264 -7h60q110 0 131 20q34 26 40 152l133 -63q-15 -139 -53 -179q-41 -43 -185 -43h-113q-252 0 -339 18q-138 30 -138 130q0 63 53 119q134 146 467 428h-496v113z" />
    <glyph glyph-name="uni4E59" unicode="&#x2f04;" 
d="M125 743h699v-101q-427 -343 -542 -463q-48 -54 -48 -96q0 -22 67 -28q69 -7 264 -7h60q110 0 131 20q34 26 40 152l133 -63q-15 -139 -53 -179q-41 -43 -185 -43h-113q-252 0 -339 18q-138 30 -138 130q0 63 53 119q134 146 467 428h-496v113z" />
    <glyph glyph-name="uni4E85" unicode="&#xf6d1;" 
d="M453 782h121v-707q0 -90 -24 -123q-29 -37 -101 -37q-93 0 -172 24l-24 125q85 -28 176 -28q13 0 19 14q5 20 5 57v675z" />
    <glyph glyph-name="uni4E85" unicode="&#x4e85;" 
d="M453 782h121v-707q0 -90 -24 -123q-29 -37 -101 -37q-93 0 -172 24l-24 125q85 -28 176 -28q13 0 19 14q5 20 5 57v675z" />
    <glyph glyph-name="uni4E85" unicode="&#x2f05;" 
d="M453 782h121v-707q0 -90 -24 -123q-29 -37 -101 -37q-93 0 -172 24l-24 125q85 -28 176 -28q13 0 19 14q5 20 5 57v675z" />
    <glyph glyph-name="uni4E8C" unicode="&#x4e8c;" 
d="M140 728h715v-118h-715v118zM78 95h847v-117h-847v117z" />
    <glyph glyph-name="uni4E8C" unicode="&#x2f06;" 
d="M140 728h715v-118h-715v118zM78 95h847v-117h-847v117z" />
    <glyph glyph-name="uni4EA0" unicode="&#xf6d2;" 
d="M433 700h125v-168h395v-113h-903v113h383v168z" />
    <glyph glyph-name="uni4EA0" unicode="&#x4ea0;" 
d="M433 700h125v-168h395v-113h-903v113h383v168z" />
    <glyph glyph-name="uni4EA0" unicode="&#x2f07;" 
d="M433 700h125v-168h395v-113h-903v113h383v168z" />
    <glyph glyph-name="uni4EBA" unicode="&#x4eba;" 
d="M433 810h117v-227q0 -6 -0.5 -16.5t-0.5 -15.5q45 -150 108 -258q90 -162 296 -288l-102 -98q-159 112 -241 235q-59 82 -103 200q-33 -87 -88 -163q-118 -164 -302 -272l-67 106q200 121 295 270q88 146 88 300v227z" />
    <glyph glyph-name="uni4EBA" unicode="&#x2f08;" 
d="M433 810h117v-227q0 -6 -0.5 -16.5t-0.5 -15.5q45 -150 108 -258q90 -162 296 -288l-102 -98q-159 112 -241 235q-59 82 -103 200q-33 -87 -88 -163q-118 -164 -302 -272l-67 106q200 121 295 270q88 146 88 300v227z" />
    <glyph glyph-name="uni513F" unicode="&#x513f;" 
d="M285 771h117q0 -272 -3 -281q0 -225 -67 -373q-69 -140 -188 -214l-74 98q107 71 161 196q52 122 52 330q2 12 2 244zM558 775h121v-688q0 -37 15 -40q8 -7 46 -7q54 0 64 16q13 13 20 54q7 31 11 86l114 -62q-24 -154 -63 -184q-12 -15 -54 -21q-21 -6 -92 -6
q-63 0 -98 11q-84 10 -84 126v715z" />
    <glyph glyph-name="uni513F" unicode="&#x2f09;" 
d="M285 771h117q0 -272 -3 -281q0 -225 -67 -373q-69 -140 -188 -214l-74 98q107 71 161 196q52 122 52 330q2 12 2 244zM558 775h121v-688q0 -37 15 -40q8 -7 46 -7q54 0 64 16q13 13 20 54q7 31 11 86l114 -62q-24 -154 -63 -184q-12 -15 -54 -21q-21 -6 -92 -6
q-63 0 -98 11q-84 10 -84 126v715z" />
    <glyph glyph-name="uni5165" unicode="&#x5165;" 
d="M226 771h375q34 -271 125 -463q80 -169 231 -287l-90 -114q-153 121 -242 326q-45 99 -75 204q-70 -163 -146 -268q-122 -159 -287 -262l-67 121q170 111 276 251q102 144 181 354q-2 8 -4 24h-277v114z" />
    <glyph glyph-name="uni5165" unicode="&#x2f0a;" 
d="M226 771h375q34 -271 125 -463q80 -169 231 -287l-90 -114q-153 121 -242 326q-45 99 -75 204q-70 -163 -146 -268q-122 -159 -287 -262l-67 121q170 111 276 251q102 144 181 354q-2 8 -4 24h-277v114z" />
    <glyph glyph-name="uni516B" unicode="&#x516b;" 
d="M230 552l117 -31q-33 -233 -78 -355q-51 -134 -144 -231l-86 86q81 96 125 214q39 96 66 317zM308 743h410q22 -251 87 -436q55 -160 159 -271l-93 -117q-108 114 -171 310q-65 194 -85 401h-307v113z" />
    <glyph glyph-name="uni516B" unicode="&#x2f0b;" 
d="M230 552l117 -31q-33 -233 -78 -355q-51 -134 -144 -231l-86 86q81 96 125 214q39 96 66 317zM308 743h410q22 -251 87 -436q55 -160 159 -271l-93 -117q-108 114 -171 310q-65 194 -85 401h-307v113z" />
    <glyph glyph-name="uni5182" unicode="&#xf6d3;" 
d="M910 778v-714q0 -145 -145 -145q-29 0 -117 4l-27 129q76 -16 144 -16q27 0 27 59v574h-585v-754h-118v863h821z" />
    <glyph glyph-name="uni5182" unicode="&#x5182;" 
d="M910 778v-714q0 -145 -145 -145q-29 0 -117 4l-27 129q76 -16 144 -16q27 0 27 59v574h-585v-754h-118v863h821z" />
    <glyph glyph-name="uni5182" unicode="&#x2f0c;" 
d="M910 778v-714q0 -145 -145 -145q-29 0 -117 4l-27 129q76 -16 144 -16q27 0 27 59v574h-585v-754h-118v863h821z" />
    <glyph glyph-name="uni5196" unicode="&#xf6d4;" 
d="M921 618v-261h-113v152h-613v-156h-113v265h839z" />
    <glyph glyph-name="uni5196" unicode="&#x5196;" 
d="M921 618v-261h-113v152h-613v-156h-113v265h839z" />
    <glyph glyph-name="uni5196" unicode="&#x2f0d;" 
d="M921 618v-261h-113v152h-613v-156h-113v265h839z" />
    <glyph glyph-name="uni51AB" unicode="&#xf6d5;" 
d="M363 700q165 -81 301 -183l-90 -102q-131 109 -289 188zM769 349l35 -117q-239 -139 -547 -247l-50 122q323 113 562 242z" />
    <glyph glyph-name="uni51AB" unicode="&#x51ab;" 
d="M363 700q165 -81 301 -183l-90 -102q-131 109 -289 188zM769 349l35 -117q-239 -139 -547 -247l-50 122q323 113 562 242z" />
    <glyph glyph-name="uni51AB" unicode="&#x2f0e;" 
d="M363 700q165 -81 301 -183l-90 -102q-131 109 -289 188zM769 349l35 -117q-239 -139 -547 -247l-50 122q323 113 562 242z" />
    <glyph glyph-name="uni51E0" unicode="&#x51e0;" 
d="M289 778h441v-683q0 -45 24 -52q15 -3 38 -3q11 0 20 4q8 3 12 12q8 16 11 117l122 -59q-7 -131 -47 -166q-19 -13 -47 -20q-43 -5 -71 -5q-103 0 -127 18q-60 9 -60 119v605h-254v-272q-4 -205 -62 -308q-59 -101 -145 -170l-86 98q83 70 128 174q44 105 44 278v313h59z
" />
    <glyph glyph-name="uni51E0" unicode="&#x2f0f;" 
d="M289 778h441v-683q0 -45 24 -52q15 -3 38 -3q11 0 20 4q8 3 12 12q8 16 11 117l122 -59q-7 -131 -47 -166q-19 -13 -47 -20q-43 -5 -71 -5q-103 0 -127 18q-60 9 -60 119v605h-254v-272q-4 -205 -62 -308q-59 -101 -145 -170l-86 98q83 70 128 174q44 105 44 278v313h59z
" />
    <glyph glyph-name="uni51F5" unicode="&#x51f5;" 
d="M89 720h121v-617h575v617h129v-777h-129v46h-575v-46h-121v777z" />
    <glyph glyph-name="uni51F5" unicode="&#x2f10;" 
d="M89 720h121v-617h575v617h129v-777h-129v46h-575v-46h-121v777z" />
    <glyph glyph-name="uni5200" unicode="&#x5200;" 
d="M144 771h766q0 -535 -26 -676q-16 -98 -55 -131q-42 -33 -115 -33q-61 0 -121 12l-27 128q73 -19 148 -19q34 0 46 24q12 23 18 106q11 165 11 475h-318q-10 -293 -93 -455q-82 -160 -230 -267l-70 97q130 100 200 246q61 130 74 379h-208v114z" />
    <glyph glyph-name="uni5200" unicode="&#x2f11;" 
d="M144 771h766q0 -535 -26 -676q-16 -98 -55 -131q-42 -33 -115 -33q-61 0 -121 12l-27 128q73 -19 148 -19q34 0 46 24q12 23 18 106q11 165 11 475h-318q-10 -293 -93 -455q-82 -160 -230 -267l-70 97q130 100 200 246q61 130 74 379h-208v114z" />
    <glyph glyph-name="uni529B" unicode="&#x529b;" 
d="M113 622h289v164h121v-164h375q0 -446 -26 -562q-18 -81 -57 -110q-44 -27 -116 -27q-68 0 -145 16l-27 129q87 -24 172 -24q35 0 48 18q12 18 18 81q12 120 12 362h-255q-11 -187 -108 -341q-100 -155 -254 -257l-63 102q157 112 235 253q60 117 69 243h-288v117z" />
    <glyph glyph-name="uni529B" unicode="&#x2f12;" 
d="M113 622h289v164h121v-164h375q0 -446 -26 -562q-18 -81 -57 -110q-44 -27 -116 -27q-68 0 -145 16l-27 129q87 -24 172 -24q35 0 48 18q12 18 18 81q12 120 12 362h-255q-11 -187 -108 -341q-100 -155 -254 -257l-63 102q157 112 235 253q60 117 69 243h-288v117z" />
    <glyph glyph-name="uni52F9" unicode="&#xf6d6;" 
d="M238 802l121 -35q-8 -32 -18 -67h569q0 -594 -39 -690q-30 -103 -145 -103q-84 0 -168 24l-23 121q119 -27 191 -27q37 0 46 51q20 89 20 515h-488q-14 -36 -20 -52q-46 -114 -101 -198l-105 82q54 80 93 184q42 100 67 195z" />
    <glyph glyph-name="uni52F9" unicode="&#x52f9;" 
d="M238 802l121 -35q-8 -32 -18 -67h569q0 -594 -39 -690q-30 -103 -145 -103q-84 0 -168 24l-23 121q119 -27 191 -27q37 0 46 51q20 89 20 515h-488q-14 -36 -20 -52q-46 -114 -101 -198l-105 82q54 80 93 184q42 100 67 195z" />
    <glyph glyph-name="uni52F9" unicode="&#x2f13;" 
d="M238 802l121 -35q-8 -32 -18 -67h569q0 -594 -39 -690q-30 -103 -145 -103q-84 0 -168 24l-23 121q119 -27 191 -27q37 0 46 51q20 89 20 515h-488q-14 -36 -20 -52q-46 -114 -101 -198l-105 82q54 80 93 184q42 100 67 195z" />
    <glyph glyph-name="uni5315" unicode="&#x5315;" 
d="M152 786h121v-302q267 77 492 181l78 -113q-264 -114 -570 -191v-251q0 -37 51 -43q55 -11 154 -11q122 0 161 5q48 4 74 23q34 24 52 167l121 -55q-13 -92 -50 -181q-26 -53 -100 -68q-81 -12 -258 -12q-158 0 -189 13q-137 7 -137 120v718z" />
    <glyph glyph-name="uni5315" unicode="&#x2f14;" 
d="M152 786h121v-302q267 77 492 181l78 -113q-264 -114 -570 -191v-251q0 -37 51 -43q55 -11 154 -11q122 0 161 5q48 4 74 23q34 24 52 167l121 -55q-13 -92 -50 -181q-26 -53 -100 -68q-81 -12 -258 -12q-158 0 -189 13q-137 7 -137 120v718z" />
    <glyph glyph-name="uni531A" unicode="&#x531a;" 
d="M914 778v-101h-704v-637h707v-101h-707v-32h-113v871h817z" />
    <glyph glyph-name="uni531A" unicode="&#x2f15;" 
d="M914 778v-101h-704v-637h707v-101h-707v-32h-113v871h817z" />
    <glyph glyph-name="uni5338" unicode="&#xf6d7;" 
d="M74 759h851v-113h-683v-528q0 -46 102 -49q56 -5 238 -5t339 11v-121q-179 -11 -339 -11q-93 0 -231 3q-230 4 -230 141v559h-47v113z" />
    <glyph glyph-name="uni5338" unicode="&#x5338;" 
d="M74 759h851v-113h-683v-528q0 -46 102 -49q56 -5 238 -5t339 11v-121q-179 -11 -339 -11q-93 0 -231 3q-230 4 -230 141v559h-47v113z" />
    <glyph glyph-name="uni5338" unicode="&#x2f16;" 
d="M74 759h851v-113h-683v-528q0 -46 102 -49q56 -5 238 -5t339 11v-121q-179 -11 -339 -11q-93 0 -231 3q-230 4 -230 141v559h-47v113z" />
    <glyph glyph-name="uni5341" unicode="&#x5341;" 
d="M62 485h379v321h121v-321h379v-117h-379v-461h-121v461h-379v117z" />
    <glyph glyph-name="uni5341" unicode="&#x2f17;" 
d="M62 485h379v321h121v-321h379v-117h-379v-461h-121v461h-379v117z" />
    <glyph glyph-name="uni535C" unicode="&#x535c;" 
d="M375 798h121v-242q231 -123 402 -242l-78 -110q-159 117 -324 210v-499h-121v883z" />
    <glyph glyph-name="uni535C" unicode="&#x2f18;" 
d="M375 798h121v-242q231 -123 402 -242l-78 -110q-159 117 -324 210v-499h-121v883z" />
    <glyph glyph-name="uni5369" unicode="&#xf6d8;" 
d="M679 665h-285v-754h-117v864h519v-563q0 -133 -117 -133q-61 0 -133 12l-27 121q75 -19 129 -19q31 0 31 35v437z" />
    <glyph glyph-name="uni5369" unicode="&#x5369;" 
d="M679 665h-285v-754h-117v864h519v-563q0 -133 -117 -133q-61 0 -133 12l-27 121q75 -19 129 -19q31 0 31 35v437z" />
    <glyph glyph-name="uni5369" unicode="&#x2f19;" 
d="M679 665h-285v-754h-117v864h519v-563q0 -133 -117 -133q-61 0 -133 12l-27 121q75 -19 129 -19q31 0 31 35v437z" />
    <glyph glyph-name="uni5382" unicode="&#x5382;" 
d="M933 771v-118h-680v-302q0 -129 -24 -248q-22 -101 -65 -196l-114 67q47 120 64 215q18 111 18 224v358h801z" />
    <glyph glyph-name="uni5382" unicode="&#x2f1a;" 
d="M933 771v-118h-680v-302q0 -129 -24 -248q-22 -101 -65 -196l-114 67q47 120 64 215q18 111 18 224v358h801z" />
    <glyph glyph-name="uni53B6" unicode="&#xf6d9;" 
d="M433 771l129 -39q-46 -182 -126 -378q-59 -150 -120 -260q210 17 392 41q-59 117 -134 225l109 51q140 -193 238 -426l-125 -54q-6 17 -37 94q-277 -39 -650 -71l-24 121q59 4 91 7q80 153 137 305q73 189 120 384z" />
    <glyph glyph-name="uni53B6" unicode="&#x53b6;" 
d="M433 771l129 -39q-46 -182 -126 -378q-59 -150 -120 -260q210 17 392 41q-59 117 -134 225l109 51q140 -193 238 -426l-125 -54q-6 17 -37 94q-277 -39 -650 -71l-24 121q59 4 91 7q80 153 137 305q73 189 120 384z" />
    <glyph glyph-name="uni53B6" unicode="&#x2f1b;" 
d="M433 771l129 -39q-46 -182 -126 -378q-59 -150 -120 -260q210 17 392 41q-59 117 -134 225l109 51q140 -193 238 -426l-125 -54q-6 17 -37 94q-277 -39 -650 -71l-24 121q59 4 91 7q80 153 137 305q73 189 120 384z" />
    <glyph glyph-name="uni53C8" unicode="&#x53c8;" 
d="M201 653h-84v114h742v-86q-104 -301 -256 -462q18 -15 39 -30q112 -85 307 -164l-63 -118q-183 72 -355 208q-10 8 -20 17q-171 -150 -394 -221l-59 114q216 64 365 194q-60 67 -105 147q-75 124 -117 287zM510 304q130 146 201 349h-394q48 -159 120 -258q27 -44 73 -91
z" />
    <glyph glyph-name="uni53C8" unicode="&#x2f1c;" 
d="M201 653h-84v114h742v-86q-104 -301 -256 -462q18 -15 39 -30q112 -85 307 -164l-63 -118q-183 72 -355 208q-10 8 -20 17q-171 -150 -394 -221l-59 114q216 64 365 194q-60 67 -105 147q-75 124 -117 287zM510 304q130 146 201 349h-394q48 -159 120 -258q27 -44 73 -91
z" />
    <glyph glyph-name="uni53E3" unicode="&#x53e3;" 
d="M871 720v-762h-114v59h-507v-59h-114v762h735zM250 126h507v484h-507v-484z" />
    <glyph glyph-name="uni53E3" unicode="&#x2f1d;" 
d="M871 720v-762h-114v59h-507v-59h-114v762h735zM250 126h507v484h-507v-484z" />
    <glyph glyph-name="uni56D7" unicode="&#x56d7;" 
d="M902 771v-844h-113v35h-571v-39h-113v848h797zM218 71h571v590h-571v-590z" />
    <glyph glyph-name="uni56D7" unicode="&#x2f1e;" 
d="M902 771v-844h-113v35h-571v-39h-113v848h797zM218 71h571v590h-571v-590z" />
    <glyph glyph-name="uni571F" unicode="&#x571f;" 
d="M101 552h332v258h125v-258h340v-121h-340v-375h387v-121h-891v121h379v375h-332v121z" />
    <glyph glyph-name="uni571F" unicode="&#x2f1f;" 
d="M101 552h332v258h125v-258h340v-121h-340v-375h387v-121h-891v121h379v375h-332v121z" />
    <glyph glyph-name="uni58EB" unicode="&#x58eb;" 
d="M78 556h359v258h117v-258h371v-113h-371v-391h336v-113h-781v113h328v391h-359v113z" />
    <glyph glyph-name="uni58EB" unicode="&#x2f20;" 
d="M78 556h359v258h117v-258h371v-113h-371v-391h336v-113h-781v113h328v391h-359v113z" />
    <glyph glyph-name="uni5902" unicode="&#xf6da;" 
d="M226 665q26 -53 59 -104q60 115 101 249l117 -28q-14 -54 -30 -101h378v-90q-90 -251 -219 -393q160 -113 321 -166l-71 -121q-187 81 -341 199q-160 -137 -370 -203l-66 125q197 54 333 164q-73 66 -139 149q-45 -62 -100 -117l-90 86q57 61 109 138q-46 66 -86 139z
M527 277q115 123 178 287h-279q-15 -32 -33 -67q-10 -18 -28 -50q58 -78 139 -152q14 -13 23 -18z" />
    <glyph glyph-name="uni5902" unicode="&#x590a;" 
d="M226 665q26 -53 59 -104q60 115 101 249l117 -28q-14 -54 -30 -101h378v-90q-90 -251 -219 -393q160 -113 321 -166l-71 -121q-187 81 -341 199q-160 -137 -370 -203l-66 125q197 54 333 164q-73 66 -139 149q-45 -62 -100 -117l-90 86q57 61 109 138q-46 66 -86 139z
M527 277q115 123 178 287h-279q-15 -32 -33 -67q-10 -18 -28 -50q58 -78 139 -152q14 -13 23 -18z" />
    <glyph glyph-name="uni5902" unicode="&#x5902;" 
d="M226 665q26 -53 59 -104q60 115 101 249l117 -28q-14 -54 -30 -101h378v-90q-90 -251 -219 -393q160 -113 321 -166l-71 -121q-187 81 -341 199q-160 -137 -370 -203l-66 125q197 54 333 164q-73 66 -139 149q-45 -62 -100 -117l-90 86q57 61 109 138q-46 66 -86 139z
M527 277q115 123 178 287h-279q-15 -32 -33 -67q-10 -18 -28 -50q58 -78 139 -152q14 -13 23 -18z" />
    <glyph glyph-name="uni5902" unicode="&#x2f22;" 
d="M226 665q26 -53 59 -104q60 115 101 249l117 -28q-14 -54 -30 -101h378v-90q-90 -251 -219 -393q160 -113 321 -166l-71 -121q-187 81 -341 199q-160 -137 -370 -203l-66 125q197 54 333 164q-73 66 -139 149q-45 -62 -100 -117l-90 86q57 61 109 138q-46 66 -86 139z
M527 277q115 123 178 287h-279q-15 -32 -33 -67q-10 -18 -28 -50q58 -78 139 -152q14 -13 23 -18z" />
    <glyph glyph-name="uni5902" unicode="&#x2f21;" 
d="M226 665q26 -53 59 -104q60 115 101 249l117 -28q-14 -54 -30 -101h378v-90q-90 -251 -219 -393q160 -113 321 -166l-71 -121q-187 81 -341 199q-160 -137 -370 -203l-66 125q197 54 333 164q-73 66 -139 149q-45 -62 -100 -117l-90 86q57 61 109 138q-46 66 -86 139z
M527 277q115 123 178 287h-279q-15 -32 -33 -67q-10 -18 -28 -50q58 -78 139 -152q14 -13 23 -18z" />
    <glyph glyph-name="uni5915" unicode="&#x5915;" 
d="M382 806l121 -28q-15 -45 -38 -97h413v-90q-102 -283 -256 -430q-179 -177 -427 -254l-67 125q242 66 393 213q139 130 211 319h-329q-4 -6 -10.5 -16t-8.5 -13q-3 -4 -9.5 -14t-9.5 -14q81 -76 150 -158l-101 -102q-62 82 -135 155q-54 -57 -104 -96l-93 90
q96 78 172 178q78 104 128 232z" />
    <glyph glyph-name="uni5915" unicode="&#x2f23;" 
d="M382 806l121 -28q-15 -45 -38 -97h413v-90q-102 -283 -256 -430q-179 -177 -427 -254l-67 125q242 66 393 213q139 130 211 319h-329q-4 -6 -10.5 -16t-8.5 -13q-3 -4 -9.5 -14t-9.5 -14q81 -76 150 -158l-101 -102q-62 82 -135 155q-54 -57 -104 -96l-93 90
q96 78 172 178q78 104 128 232z" />
    <glyph glyph-name="uni5927" unicode="&#x5927;" 
d="M74 595h359v215h121v-215h363v-113h-332q44 -151 125 -259q90 -126 243 -195l-63 -121q-160 75 -273 228q-63 83 -108 190q-33 -82 -87 -155q-120 -160 -305 -263l-67 106q200 117 295 259q64 101 82 210h-353v113z" />
    <glyph glyph-name="uni5927" unicode="&#x2f24;" 
d="M74 595h359v215h121v-215h363v-113h-332q44 -151 125 -259q90 -126 243 -195l-63 -121q-160 75 -273 228q-63 83 -108 190q-33 -82 -87 -155q-120 -160 -305 -263l-67 106q200 117 295 259q64 101 82 210h-353v113z" />
    <glyph glyph-name="uni5973" unicode="&#x5973;" 
d="M50 634h273q28 80 52 176l121 -20q-21 -87 -43 -156h500v-109h-168q-39 -167 -100 -276q-25 -44 -52 -78q144 -69 273 -154l-74 -110q-123 87 -292 172q-32 -25 -56 -40q-162 -99 -348 -132l-35 110q193 33 316 114q4 2 6 4q-78 33 -159 66q-4 -7 -11 -20.5t-11 -19.5
l-110 55q90 157 151 309h-233v109zM521 222q41 46 72 105q44 86 67 198h-244q-41 -109 -98 -223q124 -45 203 -80z" />
    <glyph glyph-name="uni5973" unicode="&#x2f25;" 
d="M50 634h273q28 80 52 176l121 -20q-21 -87 -43 -156h500v-109h-168q-39 -167 -100 -276q-25 -44 -52 -78q144 -69 273 -154l-74 -110q-123 87 -292 172q-32 -25 -56 -40q-162 -99 -348 -132l-35 110q193 33 316 114q4 2 6 4q-78 33 -159 66q-4 -7 -11 -20.5t-11 -19.5
l-110 55q90 157 151 309h-233v109zM521 222q41 46 72 105q44 86 67 198h-244q-41 -109 -98 -223q124 -45 203 -80z" />
    <glyph glyph-name="uni5B50" unicode="&#x5b50;" 
d="M152 775h746v-106q-146 -135 -340 -227v-27h383v-113h-383v-262q0 -79 -31 -104q-34 -29 -113 -29q-56 0 -110 8l-19 129q61 -19 129 -19q11 0 21 7q6 10 6 39v231h-375v113h375v133l58 -6q121 53 213 119h-560v114z" />
    <glyph glyph-name="uni5B50" unicode="&#x2f26;" 
d="M152 775h746v-106q-146 -135 -340 -227v-27h383v-113h-383v-262q0 -79 -31 -104q-34 -29 -113 -29q-56 0 -110 8l-19 129q61 -19 129 -19q11 0 21 7q6 10 6 39v231h-375v113h375v133l58 -6q121 53 213 119h-560v114z" />
    <glyph glyph-name="uni5B80" unicode="&#xf6db;" 
d="M445 677h125v-141h351v-258h-125v145h-593v-145h-125v258h367v141z" />
    <glyph glyph-name="uni5B80" unicode="&#x5b80;" 
d="M445 677h125v-141h351v-258h-125v145h-593v-145h-125v258h367v141z" />
    <glyph glyph-name="uni5B80" unicode="&#x2f27;" 
d="M445 677h125v-141h351v-258h-125v145h-593v-145h-125v258h367v141z" />
    <glyph glyph-name="uni5BF8" unicode="&#x5bf8;" 
d="M62 650h551v160h121v-160h195v-114h-195v-468q0 -87 -28 -121q-34 -36 -121 -36q-88 0 -168 20l-19 121q84 -24 168 -24q30 0 38 14q9 16 9 53v441h-551v114zM300 482q92 -110 153 -235l-125 -74q-52 123 -141 238z" />
    <glyph glyph-name="uni5BF8" unicode="&#x2f28;" 
d="M62 650h551v160h121v-160h195v-114h-195v-468q0 -87 -28 -121q-34 -36 -121 -36q-88 0 -168 20l-19 121q84 -24 168 -24q30 0 38 14q9 16 9 53v441h-551v114zM300 482q92 -110 153 -235l-125 -74q-52 123 -141 238z" />
    <glyph glyph-name="uni5C0F" unicode="&#x5c0f;" 
d="M207 618l117 -39q-59 -282 -157 -488l-113 66q99 205 153 461zM441 810h117v-754q0 -88 -31 -113q-34 -32 -113 -32q-71 0 -141 16l-20 121q76 -23 161 -23q27 0 27 50v735zM769 618q100 -214 172 -476l-121 -51q-65 269 -160 477z" />
    <glyph glyph-name="uni5C0F" unicode="&#x2f29;" 
d="M207 618l117 -39q-59 -282 -157 -488l-113 66q99 205 153 461zM441 810h117v-754q0 -88 -31 -113q-34 -32 -113 -32q-71 0 -141 16l-20 121q76 -23 161 -23q27 0 27 50v735zM769 618q100 -214 172 -476l-121 -51q-65 269 -160 477z" />
    <glyph glyph-name="uni5C22" unicode="&#x5c22;" 
d="M85 607h281q5 100 5 203h117q0 -83 -4 -203h426v-114h-262v-414q0 -39 34 -40q15 -3 42 -3q71 0 86 6q14 9 18 33q4 10 7 86l118 -66q-10 -116 -40 -146q-18 -13 -56 -19q-28 -7 -133 -7q-44 0 -87 5q-106 3 -106 112v453h-55q-10 -105 -23 -162q-42 -159 -129 -261
q-88 -99 -211 -163l-63 106q110 58 183 146q68 83 101 200q15 51 24 134h-273v114z" />
    <glyph glyph-name="uni5C22" unicode="&#x2f2a;" 
d="M85 607h281q5 100 5 203h117q0 -83 -4 -203h426v-114h-262v-414q0 -39 34 -40q15 -3 42 -3q71 0 86 6q14 9 18 33q4 10 7 86l118 -66q-10 -116 -40 -146q-18 -13 -56 -19q-28 -7 -133 -7q-44 0 -87 5q-106 3 -106 112v453h-55q-10 -105 -23 -162q-42 -159 -129 -261
q-88 -99 -211 -163l-63 106q110 58 183 146q68 83 101 200q15 51 24 134h-273v114z" />
    <glyph glyph-name="uni5C38" unicode="&#x5c38;" 
d="M773 669h-516v-160h516v160zM257 396v-36q0 -130 -32 -253q-25 -99 -85 -200l-109 67q65 130 85 218q24 114 24 228v362h758v-386h-641z" />
    <glyph glyph-name="uni5C38" unicode="&#x2f2b;" 
d="M773 669h-516v-160h516v160zM257 396v-36q0 -130 -32 -253q-25 -99 -85 -200l-109 67q65 130 85 218q24 114 24 228v362h758v-386h-641z" />
    <glyph glyph-name="uni5C6E" unicode="&#x5c6e;" 
d="M89 689h118v-336h238v457h117v-457h227v336h117v-524h-117v78h-227v-336h-117v336h-238v-78h-118v524z" />
    <glyph glyph-name="uni5C6E" unicode="&#x2f2c;" 
d="M89 689h118v-336h238v457h117v-457h227v336h117v-524h-117v78h-227v-336h-117v336h-238v-78h-118v524z" />
    <glyph glyph-name="uni5C71" unicode="&#x5c71;" 
d="M93 669h117v-566h227v703h117v-703h227v566h117v-750h-117v74h-571v-74h-117v750z" />
    <glyph glyph-name="uni5C71" unicode="&#x2f2d;" 
d="M93 669h117v-566h227v703h117v-703h227v566h117v-750h-117v74h-571v-74h-117v750z" />
    <glyph glyph-name="uni5DDB" unicode="&#xf6dc;" 
d="M250 775l105 -40q-72 -210 -158 -365q103 -179 178 -377l-114 -62q-74 235 -187 433q99 184 176 411zM500 763l105 -39q-62 -204 -137 -354q88 -173 153 -365l-114 -62q-61 221 -160 421q89 183 153 399zM773 763l105 -39q-64 -211 -136 -359q93 -167 164 -360l-114 -62
q-68 222 -171 414q88 187 152 406z" />
    <glyph glyph-name="uni5DDB" unicode="&#x5ddb;" 
d="M250 775l105 -40q-72 -210 -158 -365q103 -179 178 -377l-114 -62q-74 235 -187 433q99 184 176 411zM500 763l105 -39q-62 -204 -137 -354q88 -173 153 -365l-114 -62q-61 221 -160 421q89 183 153 399zM773 763l105 -39q-64 -211 -136 -359q93 -167 164 -360l-114 -62
q-68 222 -171 414q88 187 152 406z" />
    <glyph glyph-name="uni5DDB" unicode="&#x2f2e;" 
d="M250 775l105 -40q-72 -210 -158 -365q103 -179 178 -377l-114 -62q-74 235 -187 433q99 184 176 411zM500 763l105 -39q-62 -204 -137 -354q88 -173 153 -365l-114 -62q-61 221 -160 421q89 183 153 399zM773 763l105 -39q-64 -211 -136 -359q93 -167 164 -360l-114 -62
q-68 222 -171 414q88 187 152 406z" />
    <glyph glyph-name="uni5DE5" unicode="&#x5de5;" 
d="M97 743h805v-113h-344v-562h383v-114h-883v114h379v562h-340v113z" />
    <glyph glyph-name="uni5DE5" unicode="&#x2f2f;" 
d="M97 743h805v-113h-344v-562h383v-114h-883v114h379v562h-340v113z" />
    <glyph glyph-name="uni5DF1" unicode="&#x5df1;" 
d="M117 782h726v-484h-117v62h-492v-261q0 -51 109 -52q33 -3 201 -3q123 0 128 4q104 3 119 13q14 20 25 124l121 -67q-16 -119 -51 -158q-18 -18 -98 -24q-23 -5 -244 -5q-224 0 -277 7q-150 6 -150 126v410h609v195h-609v113z" />
    <glyph glyph-name="uni5DF1" unicode="&#x2f30;" 
d="M117 782h726v-484h-117v62h-492v-261q0 -51 109 -52q33 -3 201 -3q123 0 128 4q104 3 119 13q14 20 25 124l121 -67q-16 -119 -51 -158q-18 -18 -98 -24q-23 -5 -244 -5q-224 0 -277 7q-150 6 -150 126v410h609v195h-609v113z" />
    <glyph glyph-name="uni5DFE" unicode="&#x5dfe;" 
d="M902 665v-492q0 -145 -145 -145q-44 0 -101 12l-28 129q68 -23 129 -23q28 0 28 58v348h-231v-645h-117v645h-219v-520h-117v633h336v145h117v-145h348z" />
    <glyph glyph-name="uni5DFE" unicode="&#x2f31;" 
d="M902 665v-492q0 -145 -145 -145q-44 0 -101 12l-28 129q68 -23 129 -23q28 0 28 58v348h-231v-645h-117v645h-219v-520h-117v633h336v145h117v-145h348z" />
    <glyph glyph-name="uni5E72" unicode="&#x5e72;" 
d="M125 759h750v-113h-321v-227h371v-113h-371v-395h-121v395h-359v113h359v227h-308v113z" />
    <glyph glyph-name="uni5E72" unicode="&#x2f32;" 
d="M125 759h750v-113h-321v-227h371v-113h-371v-395h-121v395h-359v113h359v227h-308v113z" />
    <glyph glyph-name="uni5E7A" unicode="&#xf6dd;" 
d="M437 810l121 -55q-113 -170 -221 -301q65 -50 124 -103q104 131 183 256l125 -55q-200 -269 -376 -462q215 17 342 32q-24 58 -64 125l121 39q89 -141 137 -308l-133 -43q-13 53 -22 84q-306 -39 -669 -69l-20 118q71 3 137 9q78 82 156 173q-126 119 -269 212l86 90
l42 -27q120 144 200 285z" />
    <glyph glyph-name="uni5E7A" unicode="&#x5e7a;" 
d="M437 810l121 -55q-113 -170 -221 -301q65 -50 124 -103q104 131 183 256l125 -55q-200 -269 -376 -462q215 17 342 32q-24 58 -64 125l121 39q89 -141 137 -308l-133 -43q-13 53 -22 84q-306 -39 -669 -69l-20 118q71 3 137 9q78 82 156 173q-126 119 -269 212l86 90
l42 -27q120 144 200 285z" />
    <glyph glyph-name="uni5E7A" unicode="&#x2f33;" 
d="M437 810l121 -55q-113 -170 -221 -301q65 -50 124 -103q104 131 183 256l125 -55q-200 -269 -376 -462q215 17 342 32q-24 58 -64 125l121 39q89 -141 137 -308l-133 -43q-13 53 -22 84q-306 -39 -669 -69l-20 118q71 3 137 9q78 82 156 173q-126 119 -269 212l86 90
l42 -27q120 144 200 285z" />
    <glyph glyph-name="uni5E7F" unicode="&#xf6de;" 
d="M480 810h117v-78h356v-114h-711v-288q0 -119 -23 -236q-17 -87 -59 -187l-110 67q43 114 58 204q17 110 17 213v341h355v78z" />
    <glyph glyph-name="uni5E7F" unicode="&#x5e7f;" 
d="M480 810h117v-78h356v-114h-711v-288q0 -119 -23 -236q-17 -87 -59 -187l-110 67q43 114 58 204q17 110 17 213v341h355v78z" />
    <glyph glyph-name="uni5E7F" unicode="&#x2f34;" 
d="M480 810h117v-78h356v-114h-711v-288q0 -119 -23 -236q-17 -87 -59 -187l-110 67q43 114 58 204q17 110 17 213v341h355v78z" />
    <glyph glyph-name="uni5EF4" unicode="&#x5ef4;" 
d="M237 400q-23 -31 -54 -67l-86 78q101 113 168 254h-172v110h301v-86q-31 -91 -83 -180h165q-30 -241 -99 -362q-13 -25 -24 -41q79 -50 324 -50q130 0 280 12l-40 -129h-240q-282 1 -382 68q-7 3 -13 9q-52 -56 -115 -105l-85 94q71 46 119 94q-49 68 -76 176l89 39
q25 -75 59 -126q52 84 70 212h-106z" />
    <glyph glyph-name="uni5EF4" unicode="&#x2f35;" 
d="M237 400q-23 -31 -54 -67l-86 78q101 113 168 254h-172v110h301v-86q-31 -91 -83 -180h165q-30 -241 -99 -362q-13 -25 -24 -41q79 -50 324 -50q130 0 280 12l-40 -129h-240q-282 1 -382 68q-7 3 -13 9q-52 -56 -115 -105l-85 94q71 46 119 94q-49 68 -76 176l89 39
q25 -75 59 -126q52 84 70 212h-106z" />
    <glyph glyph-name="uni5EFE" unicode="&#x5efe;" 
d="M78 470h187v297h117v-297h258v297h117v-297h168v-110h-168v-429h-117v429h-258q-3 -144 -74 -258q-68 -108 -172 -179l-62 102q99 72 147 162q43 85 44 173h-187v110z" />
    <glyph glyph-name="uni5EFE" unicode="&#x2f36;" 
d="M78 470h187v297h117v-297h258v297h117v-297h168v-110h-168v-429h-117v429h-258q-3 -144 -74 -258q-68 -108 -172 -179l-62 102q99 72 147 162q43 85 44 173h-187v110z" />
    <glyph glyph-name="uni5F0B" unicode="&#x5f0b;" 
d="M886 564l12 -118l-385 -33q7 -49 18 -81q38 -120 112 -199q97 -93 153 -93q14 0 23 16q13 18 28 86l121 -74q-30 -83 -74 -120q-41 -29 -98 -29q-78 0 -198 96q-120 106 -169 244q-23 54 -36 144l-276 -23l-20 117l282 24q-11 120 -12 277l121 -12q3 -165 11 -255z
M656 790q70 -45 129 -105l-90 -110q-60 74 -125 125z" />
    <glyph glyph-name="uni5F0B" unicode="&#x2f37;" 
d="M886 564l12 -118l-385 -33q7 -49 18 -81q38 -120 112 -199q97 -93 153 -93q14 0 23 16q13 18 28 86l121 -74q-30 -83 -74 -120q-41 -29 -98 -29q-78 0 -198 96q-120 106 -169 244q-23 54 -36 144l-276 -23l-20 117l282 24q-11 120 -12 277l121 -12q3 -165 11 -255z
M656 790q70 -45 129 -105l-90 -110q-60 74 -125 125z" />
    <glyph glyph-name="uni5F13" unicode="&#x5f13;" 
d="M121 786h730v-363h-121v35h-457l-27 -125h656q0 -318 -37 -370q-29 -56 -139 -56q-114 0 -226 12l-24 121q156 -15 250 -15q27 0 36 18q15 30 15 181h-555l-15 -71l-118 20l75 395h566v109h-609v109z" />
    <glyph glyph-name="uni5F13" unicode="&#x2f38;" 
d="M121 786h730v-363h-121v35h-457l-27 -125h656q0 -318 -37 -370q-29 -56 -139 -56q-114 0 -226 12l-24 121q156 -15 250 -15q27 0 36 18q15 30 15 181h-555l-15 -71l-118 20l75 395h566v109h-609v109z" />
    <glyph glyph-name="uni5F50" unicode="&#xf6e0;" 
d="M191 411h519v199h-531v114h645v-656h125v-110h-879v110h640v230h-519v113z" />
    <glyph glyph-name="uni5F50" unicode="&#x5f50;" 
d="M191 411h519v199h-531v114h645v-656h125v-110h-879v110h640v230h-519v113z" />
    <glyph glyph-name="uni5F50" unicode="&#x2f39;" 
d="M191 411h519v199h-531v114h645v-656h125v-110h-879v110h640v230h-519v113z" />
    <glyph glyph-name="uni5F61" unicode="&#xf6e1;" 
d="M656 806l82 -94q-100 -103 -220 -157q-147 -67 -296 -89l-66 109q181 37 299 91q107 48 201 140zM730 564l82 -94q-115 -121 -258 -188q-172 -78 -347 -105l-63 105q206 43 350 110q127 60 236 172zM828 318l82 -94q-147 -133 -322 -203q-213 -84 -432 -114l-67 110
q264 47 441 117q162 65 298 184z" />
    <glyph glyph-name="uni5F61" unicode="&#x5f61;" 
d="M656 806l82 -94q-100 -103 -220 -157q-147 -67 -296 -89l-66 109q181 37 299 91q107 48 201 140zM730 564l82 -94q-115 -121 -258 -188q-172 -78 -347 -105l-63 105q206 43 350 110q127 60 236 172zM828 318l82 -94q-147 -133 -322 -203q-213 -84 -432 -114l-67 110
q264 47 441 117q162 65 298 184z" />
    <glyph glyph-name="uni5F61" unicode="&#x2f3a;" 
d="M656 806l82 -94q-100 -103 -220 -157q-147 -67 -296 -89l-66 109q181 37 299 91q107 48 201 140zM730 564l82 -94q-115 -121 -258 -188q-172 -78 -347 -105l-63 105q206 43 350 110q127 60 236 172zM828 318l82 -94q-147 -133 -322 -203q-213 -84 -432 -114l-67 110
q264 47 441 117q162 65 298 184z" />
    <glyph glyph-name="uni5F73" unicode="&#x5f73;" 
d="M515 810l113 -63q-58 -69 -153 -137q-126 -85 -214 -121l-78 102q89 38 192 104q90 60 140 115zM625 591l113 -63q-77 -89 -199 -179v-442h-125v363q-99 -58 -176 -89l-78 101q122 54 268 148q123 81 197 161z" />
    <glyph glyph-name="uni5F73" unicode="&#x2f3b;" 
d="M515 810l113 -63q-58 -69 -153 -137q-126 -85 -214 -121l-78 102q89 38 192 104q90 60 140 115zM625 591l113 -63q-77 -89 -199 -179v-442h-125v363q-99 -58 -176 -89l-78 101q122 54 268 148q123 81 197 161z" />
    <glyph glyph-name="uni5FC3" unicode="&#x5fc3;" 
d="M128 513l114 -39q-41 -248 -94 -426l-113 59q60 203 93 406zM296 571h118v-476q0 -40 53 -41q16 -2 66 -2q98 0 115 7q19 13 25 44q5 14 10 113l117 -66q-10 -143 -46 -179q-24 -17 -66 -24q-29 -8 -155 -8q-54 0 -107 5q-130 3 -130 112v515zM429 798q120 -69 223 -164
l-90 -109q-108 111 -219 187zM843 525q69 -171 117 -372l-121 -50q-39 202 -101 371z" />
    <glyph glyph-name="uni5FC3" unicode="&#x2f3c;" 
d="M128 513l114 -39q-41 -248 -94 -426l-113 59q60 203 93 406zM296 571h118v-476q0 -40 53 -41q16 -2 66 -2q98 0 115 7q19 13 25 44q5 14 10 113l117 -66q-10 -143 -46 -179q-24 -17 -66 -24q-29 -8 -155 -8q-54 0 -107 5q-130 3 -130 112v515zM429 798q120 -69 223 -164
l-90 -109q-108 111 -219 187zM843 525q69 -171 117 -372l-121 -50q-39 202 -101 371z" />
    <glyph glyph-name="uni6208" unicode="&#x6208;" 
d="M906 614l11 -117l-415 -49q12 -57 28 -97q17 -46 39 -88q97 82 173 183l113 -58q-101 -139 -217 -231q14 -21 40 -47q81 -82 130 -82q6 0 12 16q7 30 12 113l117 -50q-16 -122 -68 -171q-34 -29 -73 -29q-79 0 -193 102q-43 37 -75 79q-165 -97 -384 -161l-59 105
q231 69 373 158q1 1 2 1q-24 42 -46 96q-27 62 -46 146l-306 -37l-20 117l307 36q-14 108 -14 257h121q1 -137 15 -242zM632 794q75 -34 133 -78l-86 -106q-63 58 -129 98z" />
    <glyph glyph-name="uni6208" unicode="&#x2f3d;" 
d="M906 614l11 -117l-415 -49q12 -57 28 -97q17 -46 39 -88q97 82 173 183l113 -58q-101 -139 -217 -231q14 -21 40 -47q81 -82 130 -82q6 0 12 16q7 30 12 113l117 -50q-16 -122 -68 -171q-34 -29 -73 -29q-79 0 -193 102q-43 37 -75 79q-165 -97 -384 -161l-59 105
q231 69 373 158q1 1 2 1q-24 42 -46 96q-27 62 -46 146l-306 -37l-20 117l307 36q-14 108 -14 257h121q1 -137 15 -242zM632 794q75 -34 133 -78l-86 -106q-63 58 -129 98z" />
    <glyph glyph-name="uni6236" unicode="&#x6236;" 
d="M300 446v-70q0 -37 -3 -70h476v140h-473zM773 193h-494q-11 -42 -19 -70q-45 -126 -112 -223l-90 74q65 99 97 192q32 101 32 210v356q372 6 645 78l66 -106q-262 -68 -598 -80v-64h590v-434h-117v67z" />
    <glyph glyph-name="uni6236" unicode="&#x2f3e;" 
d="M300 446v-70q0 -37 -3 -70h476v140h-473zM773 193h-494q-11 -42 -19 -70q-45 -126 -112 -223l-90 74q65 99 97 192q32 101 32 210v356q372 6 645 78l66 -106q-262 -68 -598 -80v-64h590v-434h-117v67z" />
    <glyph glyph-name="uni624B" unicode="&#x624b;" 
d="M839 810l59 -106q-148 -18 -324 -27v-113h312v-114h-312v-117h379v-113h-379v-156q0 -88 -26 -120q-32 -37 -111 -37q-84 0 -156 12l-20 121q78 -15 156 -15q22 0 29 13q7 19 7 53v129h-403v113h403v117h-328v114h328v107q-140 -7 -332 -10l-36 106q380 0 754 43z" />
    <glyph glyph-name="uni624B" unicode="&#x2f3f;" 
d="M839 810l59 -106q-148 -18 -324 -27v-113h312v-114h-312v-117h379v-113h-379v-156q0 -88 -26 -120q-32 -37 -111 -37q-84 0 -156 12l-20 121q78 -15 156 -15q22 0 29 13q7 19 7 53v129h-403v113h403v117h-328v114h328v107q-140 -7 -332 -10l-36 106q380 0 754 43z" />
    <glyph glyph-name="uni652F" unicode="&#x652f;" 
d="M70 696h367v114h117v-114h375v-109h-375v-117h313v-82q-95 -165 -226 -260q134 -60 319 -96l-62 -121q-216 50 -375 142q-184 -98 -410 -142l-59 114q207 33 359 100q-130 99 -211 235h-62v110h297v117h-367v109zM335 360q70 -100 194 -174q120 74 189 174h-383z" />
    <glyph glyph-name="uni652F" unicode="&#x2f40;" 
d="M70 696h367v114h117v-114h375v-109h-375v-117h313v-82q-95 -165 -226 -260q134 -60 319 -96l-62 -121q-216 50 -375 142q-184 -98 -410 -142l-59 114q207 33 359 100q-130 99 -211 235h-62v110h297v117h-367v109zM335 360q70 -100 194 -174q120 74 189 174h-383z" />
    <glyph glyph-name="uni6534" unicode="&#xf6e2;" 
d="M398 814h113v-121h414v-110h-414v-113h344v-82q-97 -175 -233 -273q134 -58 331 -87l-43 -117q-234 33 -404 131q-171 -94 -393 -139l-59 114q200 33 343 99q-115 96 -197 244h-87v110h285v344zM508 176q121 77 193 184h-374q78 -112 181 -184z" />
    <glyph glyph-name="uni6534" unicode="&#x6534;" 
d="M398 814h113v-121h414v-110h-414v-113h344v-82q-97 -175 -233 -273q134 -58 331 -87l-43 -117q-234 33 -404 131q-171 -94 -393 -139l-59 114q200 33 343 99q-115 96 -197 244h-87v110h285v344zM508 176q121 77 193 184h-374q78 -112 181 -184z" />
    <glyph glyph-name="uni6534" unicode="&#x2f41;" 
d="M398 814h113v-121h414v-110h-414v-113h344v-82q-97 -175 -233 -273q134 -58 331 -87l-43 -117q-234 33 -404 131q-171 -94 -393 -139l-59 114q200 33 343 99q-115 96 -197 244h-87v110h285v344zM508 176q121 77 193 184h-374q78 -112 181 -184z" />
    <glyph glyph-name="uni6587" unicode="&#x6587;" 
d="M437 818h121v-137h379v-113h-153q-45 -227 -191 -373q146 -103 364 -151l-43 -117q-242 47 -415 185q-150 -114 -378 -205l-82 110q215 73 365 184q-125 135 -215 367h-127v113h375v137zM316 568q79 -180 181 -289q113 110 158 289h-339z" />
    <glyph glyph-name="uni6587" unicode="&#x2f42;" 
d="M437 818h121v-137h379v-113h-153q-45 -227 -191 -373q146 -103 364 -151l-43 -117q-242 47 -415 185q-150 -114 -378 -205l-82 110q215 73 365 184q-125 135 -215 367h-127v113h375v137zM316 568q79 -180 181 -289q113 110 158 289h-339z" />
    <glyph glyph-name="uni6597" unicode="&#x6597;" 
d="M328 790q96 -53 172 -117l-83 -102q-85 79 -175 133zM261 564q96 -62 172 -141l-82 -102q-82 89 -176 157zM917 333l12 -113l-207 -31v-282h-117v264l-496 -76l-20 113l516 78v524h117v-506z" />
    <glyph glyph-name="uni6597" unicode="&#x2f43;" 
d="M328 790q96 -53 172 -117l-83 -102q-85 79 -175 133zM261 564q96 -62 172 -141l-82 -102q-82 89 -176 157zM917 333l12 -113l-207 -31v-282h-117v264l-496 -76l-20 113l516 78v524h117v-506z" />
    <glyph glyph-name="uni65A4" unicode="&#x65a4;" 
d="M294 372q-8 -199 -39 -292q-37 -104 -103 -173l-102 82q56 59 88 145q37 102 37 389v220q381 21 637 67l59 -106q-238 -40 -575 -62v-155v-2h641v-113h-250v-465h-117v465h-276z" />
    <glyph glyph-name="uni65A4" unicode="&#x2f44;" 
d="M294 372q-8 -199 -39 -292q-37 -104 -103 -173l-102 82q56 59 88 145q37 102 37 389v220q381 21 637 67l59 -106q-238 -40 -575 -62v-155v-2h641v-113h-250v-465h-117v465h-276z" />
    <glyph glyph-name="uni65B9" unicode="&#x65b9;" 
d="M437 810h121v-117h379v-118h-520q0 -41 -2 -101h444q0 -456 -48 -501q-39 -54 -132 -54q-60 0 -156 8l-27 121q99 -12 171 -12q33 0 47 30q15 34 24 294h-330q-7 -65 -17 -117q-33 -124 -99 -202q-65 -74 -160 -126l-58 106q79 44 129 109q47 61 71 148q23 86 26 297
h-234v118h371v117z" />
    <glyph glyph-name="uni65B9" unicode="&#x2f45;" 
d="M437 810h121v-117h379v-118h-520q0 -41 -2 -101h444q0 -456 -48 -501q-39 -54 -132 -54q-60 0 -156 8l-27 121q99 -12 171 -12q33 0 47 30q15 34 24 294h-330q-7 -65 -17 -117q-33 -124 -99 -202q-65 -74 -160 -126l-58 106q79 44 129 109q47 61 71 148q23 86 26 297
h-234v118h371v117z" />
    <glyph glyph-name="uni65E0" unicode="&#x65e0;" 
d="M128 763h758v-113h-337q-5 -109 -19 -192h403v-117h-301v-262q0 -39 37 -40q17 -3 45 -3q76 0 90 6q16 9 20 31q5 14 8 80l117 -66q-10 -110 -41 -139q-21 -12 -57 -18q-28 -7 -137 -7q-46 0 -89 5q-110 3 -110 112v301h-10q-10 -35 -11 -38q-50 -148 -148 -258
q-88 -99 -218 -138l-54 110q117 37 192 126q70 76 113 198h-309v117h339q15 84 21 192h-302v113z" />
    <glyph glyph-name="uni65E0" unicode="&#x2f46;" 
d="M128 763h758v-113h-337q-5 -109 -19 -192h403v-117h-301v-262q0 -39 37 -40q17 -3 45 -3q76 0 90 6q16 9 20 31q5 14 8 80l117 -66q-10 -110 -41 -139q-21 -12 -57 -18q-28 -7 -137 -7q-46 0 -89 5q-110 3 -110 112v301h-10q-10 -35 -11 -38q-50 -148 -148 -258
q-88 -99 -218 -138l-54 110q117 37 192 126q70 76 113 198h-309v117h339q15 84 21 192h-302v113z" />
    <glyph glyph-name="uni65E5" unicode="&#x65e5;" 
d="M847 763v-852h-121v47h-453v-47h-121v852h695zM273 75h453v235h-453v-235zM273 427h453v219h-453v-219z" />
    <glyph glyph-name="uni65E5" unicode="&#x2f47;" 
d="M847 763v-852h-121v47h-453v-47h-121v852h695zM273 75h453v235h-453v-235zM273 427h453v219h-453v-219z" />
    <glyph glyph-name="uni66F0" unicode="&#x66f0;" 
d="M898 755v-809h-121v59h-563v-70h-121v820h805zM214 122h563v516h-563v-211h512v-117h-512v-188z" />
    <glyph glyph-name="uni66F0" unicode="&#x2f48;" 
d="M898 755v-809h-121v59h-563v-70h-121v820h805zM214 122h563v516h-563v-211h512v-117h-512v-188z" />
    <glyph glyph-name="uni6708" unicode="&#x6708;" 
d="M261 767h586v-703q0 -153 -133 -153q-44 0 -113 16l-27 129q62 -28 121 -28q35 0 35 79v82h-426q-12 -56 -20 -82q-27 -97 -93 -196l-106 63q71 124 95 214q27 111 27 223v356h54zM318 298h412v129h-410v-72q0 -21 -2 -57zM320 536h410v121h-410v-121z" />
    <glyph glyph-name="uni6708" unicode="&#x2f49;" 
d="M261 767h586v-703q0 -153 -133 -153q-44 0 -113 16l-27 129q62 -28 121 -28q35 0 35 79v82h-426q-12 -56 -20 -82q-27 -97 -93 -196l-106 63q71 124 95 214q27 111 27 223v356h54zM318 298h412v129h-410v-72q0 -21 -2 -57zM320 536h410v121h-410v-121z" />
    </font>
</defs>
</svg>
