<?xml version="1.0" standalone="no"?>
<!DOCTYPE svg PUBLIC "-//W3C//DTD SVG 1.1//EN" "http://www.w3.org/Graphics/SVG/1.1/DTD/svg11.dtd" >
<svg xmlns="http://www.w3.org/2000/svg" xmlns:xlink="http://www.w3.org/1999/xlink" version="1.1">
<metadata>
Created by FontForge 20161013 at Wed Jul  1 10:10:20 2009
 By ,,,
(c) Copyright DynaComware Corp. 2009
</metadata>
<defs>
<font id="DFPHeiW9" horiz-adv-x="1024" vert-adv-y="1024" >
  <font-face 
    font-family="DFPHeiW9-GB"
    font-weight="400"
    font-stretch="normal"
    units-per-em="1024"
    panose-1="2 11 9 0 0 0 0 0 0 0"
    ascent="880"
    descent="-144"
    x-height="434"
    cap-height="753"
    bbox="0 -144 1024 880"
    underline-thickness="50"
    underline-position="-185"
    unicode-range="U+0001-FFE5"
  />
<missing-glyph 
 />
    <glyph glyph-name=".notdef" 
 />
    <glyph glyph-name="glyph1" horiz-adv-x="512" 
 />
    <glyph glyph-name="glyph2" horiz-adv-x="512" 
 />
    <glyph glyph-name="uni0001" 
 />
    <glyph glyph-name="uni0002" 
 />
    <glyph glyph-name="uni0003" 
 />
    <glyph glyph-name="uni0004" 
 />
    <glyph glyph-name="uni0005" 
 />
    <glyph glyph-name="uni0006" 
 />
    <glyph glyph-name="uni0007" 
 />
    <glyph glyph-name="uni0008" 
 />
    <glyph glyph-name="uni0009" unicode="&#x9;" 
 />
    <glyph glyph-name="uni000A" unicode="&#xa;" 
 />
    <glyph glyph-name="uni000B" 
 />
    <glyph glyph-name="uni000C" 
 />
    <glyph glyph-name="uni000D" unicode="&#xd;" 
 />
    <glyph glyph-name="uni000E" 
 />
    <glyph glyph-name="uni000F" 
 />
    <glyph glyph-name="uni0010" 
 />
    <glyph glyph-name="uni0011" 
 />
    <glyph glyph-name="uni0012" 
 />
    <glyph glyph-name="uni0013" 
 />
    <glyph glyph-name="uni0014" 
 />
    <glyph glyph-name="uni0015" 
 />
    <glyph glyph-name="uni0016" 
 />
    <glyph glyph-name="uni0017" 
 />
    <glyph glyph-name="uni0018" 
 />
    <glyph glyph-name="uni0019" 
 />
    <glyph glyph-name="uni001A" 
 />
    <glyph glyph-name="uni001B" 
 />
    <glyph glyph-name="uni001C" 
 />
    <glyph glyph-name="uni001D" 
 />
    <glyph glyph-name="uni001E" 
 />
    <glyph glyph-name="uni001F" 
 />
    <glyph glyph-name="space" unicode=" " horiz-adv-x="341" 
 />
    <glyph glyph-name="exclam" unicode="!" horiz-adv-x="341" 
d="M233 632l-25 -445h-75l-25 445h125zM229 -1h-117v113h117v-113z" />
    <glyph glyph-name="quotedbl" unicode="&#x22;" horiz-adv-x="284" 
d="M253 639l-17 -214h-65l-17 214h99zM130 639l-17 -214h-65l-17 214h99z" />
    <glyph glyph-name="numbersign" unicode="#" horiz-adv-x="532" 
d="M508 476l-8 -93h-79l-14 -125h74l-9 -92h-77l-18 -158h-95l18 158h-104l-19 -158h-95l18 158h-75l8 92h79l14 125h-75l9 93h77l19 158h95l-19 -158h105l19 158h96l-20 -158h76zM326 383h-105l-14 -125h104z" />
    <glyph glyph-name="dollar" unicode="$" horiz-adv-x="532" 
d="M495 186q0 -84 -60 -133q-50 -42 -134 -52v-65h-70v64q-150 14 -193 183l92 37q29 -107 101 -120v198q-81 31 -118 62q-57 46 -57 120q0 144 175 158v65h70v-66q71 -6 113 -43q43 -37 70 -114l-92 -39q-17 48 -35 68q-20 24 -56 30v-158q92 -33 132 -65q62 -50 62 -130z
M231 407v133q-73 -10 -73 -66q0 -37 73 -67zM392 186q0 55 -91 89v-174q91 16 91 85z" />
    <glyph glyph-name="percent" unicode="%" horiz-adv-x="772" 
d="M731 168q0 -71 -38 -117q-41 -52 -113 -52q-75 0 -115 51q-36 44 -36 118q0 73 37 122q41 56 114 56q72 0 114 -56q37 -49 37 -122zM667 585l-494 -586l-68 55l494 585zM343 464q0 -72 -37 -120q-41 -52 -113 -52q-76 0 -116 51q-36 47 -36 121q0 73 37 121q41 54 115 54
q72 0 113 -54q37 -49 37 -121zM636 170q0 84 -56 84q-28 0 -42 -26q-14 -23 -14 -58q0 -76 56 -76t56 76zM248 464q0 85 -55 85q-28 0 -43 -25t-15 -60q0 -78 58 -78q55 0 55 78z" />
    <glyph glyph-name="ampersand" unicode="&#x26;" horiz-adv-x="636" 
d="M595 314h-52q-13 -89 -46 -156q47 -33 97 -56l-45 -78q-56 23 -108 58q-81 -83 -189 -83q-91 0 -148 45q-63 50 -63 141q0 93 116 177q-51 78 -51 133q0 70 46 109q43 35 111 35q61 0 101 -40q39 -40 39 -102q0 -81 -113 -158q49 -54 130 -122q18 43 26 97h-43v84h192
v-84zM308 497q0 50 -49 50q-58 0 -58 -52q0 -31 32 -83q75 49 75 85zM367 139q-94 75 -156 148q-75 -54 -75 -102q0 -93 116 -93q61 0 115 47z" />
    <glyph glyph-name="quotesingle" unicode="'" horiz-adv-x="161" 
d="M130 639l-17 -214h-65l-17 214h99z" />
    <glyph glyph-name="parenleft" unicode="(" horiz-adv-x="341" 
d="M283 -34l-72 -65q-153 180 -153 420t153 420l72 -65q-133 -148 -133 -355t133 -355z" />
    <glyph glyph-name="parenright" unicode=")" horiz-adv-x="341" 
d="M283 321q0 -240 -153 -420l-72 65q133 148 133 355t-133 355l72 65q153 -180 153 -420z" />
    <glyph glyph-name="asterisk" unicode="*" horiz-adv-x="481" 
d="M451 451l-160 -32l110 -118l-82 -60l-78 143l-80 -143l-81 60l110 118l-159 32l30 96l149 -68l-21 160h102l-20 -160l148 68z" />
    <glyph glyph-name="plus" unicode="+" horiz-adv-x="531" 
d="M490 174h-179v-166h-92v166h-178v93h178v167h92v-167h179v-93z" />
    <glyph glyph-name="comma" unicode="," horiz-adv-x="266" 
d="M194 18q0 -80 -79 -136l-34 42q45 35 54 75h-62v121h121v-102z" />
    <glyph glyph-name="hyphen" unicode="-" horiz-adv-x="341" 
d="M299 174h-257v93h257v-93z" />
    <glyph glyph-name="period" unicode="." horiz-adv-x="266" 
d="M194 -1h-121v121h121v-121z" />
    <glyph glyph-name="slash" unicode="/" horiz-adv-x="285" 
d="M267 706l-159 -792l-91 23l160 790z" />
    <glyph glyph-name="zero" unicode="0" horiz-adv-x="532" 
d="M471 320q0 -321 -205 -321t-205 321q0 319 205 319t205 -319zM355 320q0 48 -1 65q-7 141 -88 141q-59 0 -79 -79q-10 -40 -10 -127q0 -207 89 -207q60 0 79 79q10 41 10 128z" />
    <glyph glyph-name="one" unicode="1" horiz-adv-x="532" 
d="M370 8h-109v463h-98v82q100 0 125 81h82v-626z" />
    <glyph glyph-name="two" unicode="2" horiz-adv-x="532" 
d="M462 469q0 -100 -130 -227q-78 -76 -109 -124h238v-110h-389q22 104 71 181q38 59 112 130q46 44 63 71q29 39 29 79q0 58 -80 58q-81 0 -89 -143l-107 42q21 213 192 213q84 0 135 -35q64 -43 64 -135z" />
    <glyph glyph-name="three" unicode="3" horiz-adv-x="532" 
d="M464 186q0 -90 -63 -142q-56 -45 -139 -45q-156 0 -193 175l105 36q11 -56 34 -78q18 -19 54 -19q37 0 62 24q25 22 25 55q0 35 -20 58q-21 24 -56 24h-87v104h78q23 0 45 29q23 28 23 56q0 63 -61 63q-60 0 -75 -92l-106 32q33 173 178 173q80 0 129 -46q48 -46 48 -130
q0 -78 -53 -126q72 -52 72 -151z" />
    <glyph glyph-name="four" unicode="4" horiz-adv-x="532" 
d="M473 142h-72v-134h-108v134h-234v97l246 395h96v-384h72v-108zM293 250v159l-98 -159h98z" />
    <glyph glyph-name="five" unicode="5" horiz-adv-x="532" 
d="M461 233q0 -96 -50 -162q-56 -72 -149 -72q-133 0 -190 159l99 43q35 -88 91 -88q84 0 84 120q0 109 -67 109q-30 0 -48 -13q-17 -14 -34 -52h-100v357h341v-110h-227v-82q30 14 68 14q91 0 140 -70q42 -60 42 -153z" />
    <glyph glyph-name="six" unicode="6" horiz-adv-x="532" 
d="M475 217q0 -91 -59 -154q-59 -64 -147 -64q-119 0 -173 107q-39 78 -39 204q0 329 212 329q133 0 193 -153l-105 -42q-21 51 -38 66q-16 16 -50 16q-72 0 -91 -130q45 26 95 26q92 0 147 -55t55 -150zM360 217q0 92 -87 92q-63 0 -99 -45q10 -151 95 -151q42 0 67 30
q24 28 24 74z" />
    <glyph glyph-name="seven" unicode="7" horiz-adv-x="532" 
d="M481 538q-114 -117 -149 -236q-29 -95 -29 -294h-119q0 177 26 281q32 127 116 235h-275v110h430v-96z" />
    <glyph glyph-name="eight" unicode="8" horiz-adv-x="532" 
d="M468 191q0 -94 -57 -145q-54 -47 -143 -47t-143 47q-60 52 -60 145q0 97 75 157q-56 48 -56 121q0 84 54 129q49 41 128 41t128 -41q55 -45 55 -129q0 -73 -57 -121q76 -60 76 -157zM333 465q0 61 -67 61q-66 0 -66 -61q0 -28 19 -46t48 -18t47 17q19 18 19 47zM353 194
q0 95 -88 95q-85 0 -85 -95q0 -81 88 -81q85 0 85 81z" />
    <glyph glyph-name="nine" unicode="9" horiz-adv-x="532" 
d="M456 312q0 -313 -204 -313q-113 0 -166 143l100 49q31 -78 66 -78q69 0 84 114q-38 -23 -79 -23q-86 0 -135 60q-45 56 -45 145q0 92 44 157q51 73 141 73q120 0 166 -118q28 -74 28 -209zM341 367q-5 159 -79 159q-34 0 -52 -35q-19 -34 -19 -82q0 -91 72 -91
q43 0 78 49z" />
    <glyph glyph-name="colon" unicode=":" horiz-adv-x="266" 
d="M194 241h-121v121h121v-121zM194 -1h-121v121h121v-121z" />
    <glyph glyph-name="semicolon" unicode=";" horiz-adv-x="266" 
d="M194 241h-121v121h121v-121zM194 18q0 -80 -79 -136l-34 42q45 35 54 75h-62v121h121v-102z" />
    <glyph glyph-name="less" unicode="&#x3c;" horiz-adv-x="531" 
d="M463 90l-52 -76l-343 207l343 206l52 -76l-216 -130z" />
    <glyph glyph-name="equal" unicode="=" horiz-adv-x="531" 
d="M470 254h-410v92h410v-92zM470 95h-410v92h410v-92z" />
    <glyph glyph-name="greater" unicode="&#x3e;" horiz-adv-x="531" 
d="M463 221l-343 -207l-52 76l217 131l-217 130l52 76z" />
    <glyph glyph-name="question" unicode="?" horiz-adv-x="410" 
d="M370 490q0 -50 -30 -92q-33 -37 -65 -73q-44 -50 -44 -138h-98q0 58 9 93q13 40 45 83q25 31 50 61q30 42 30 66q0 48 -62 48q-66 0 -66 -82h-99q0 84 44 131q45 47 121 47q65 0 112 -36q53 -41 53 -108zM244 -1h-119v113h119v-113z" />
    <glyph glyph-name="at" unicode="@" horiz-adv-x="773" 
d="M732 350q0 -90 -59 -156q-62 -70 -148 -70q-62 0 -86 56q-49 -46 -116 -46q-65 0 -102 44q-34 39 -34 104q0 94 69 166q70 73 164 73q52 0 87 -45h85q-79 -232 -79 -260q0 -5 12 -5q49 0 83 43q35 43 35 96q0 203 -241 203q-111 0 -188 -58q-84 -62 -84 -165
q0 -108 71 -177q71 -68 190 -68q79 0 127 13q38 10 95 41l53 -61q-115 -79 -275 -79q-165 0 -259 93q-91 89 -91 238q0 144 107 231q101 78 254 78q151 0 238 -72q92 -77 92 -217zM468 360q0 28 -13 51q-13 22 -35 22q-64 0 -104 -49q-40 -47 -40 -112q0 -21 17 -36
q15 -15 36 -15q42 0 81 45q58 64 58 94z" />
    <glyph glyph-name="A" unicode="A" horiz-adv-x="696" 
d="M655 8h-118l-64 153h-250l-63 -153h-119l259 626h96zM427 272l-79 191l-79 -191h158z" />
    <glyph glyph-name="B" unicode="B" horiz-adv-x="532" 
d="M492 191q0 -94 -74 -144q-63 -39 -158 -39h-219v626h223q212 0 212 -173q0 -75 -51 -123q67 -50 67 -147zM359 456q0 67 -97 67h-112v-135h112q97 0 97 68zM376 198q0 80 -111 80h-115v-160h115q111 0 111 80z" />
    <glyph glyph-name="C" unicode="C" horiz-adv-x="582" 
d="M543 459l-110 -40q-41 107 -128 107q-71 0 -112 -74q-36 -62 -36 -142q0 -78 30 -132q38 -65 106 -65q51 0 84 33q25 25 51 90l108 -44q-39 -96 -92 -141q-59 -52 -151 -52q-121 0 -192 99q-62 88 -62 212q0 127 66 222q76 107 200 107q84 0 141 -42q57 -41 97 -138z" />
    <glyph glyph-name="D" unicode="D" horiz-adv-x="596" 
d="M555 316q0 -149 -92 -231q-88 -77 -237 -77h-185v626h185q329 0 329 -318zM439 316q0 114 -48 161q-49 47 -164 47h-77v-406h77q212 0 212 198z" />
    <glyph glyph-name="E" unicode="E" horiz-adv-x="477" 
d="M436 8h-395v626h395v-110h-286v-143h254v-110h-254v-153h286v-110z" />
    <glyph glyph-name="F" unicode="F" horiz-adv-x="474" 
d="M433 524h-283v-143h254v-110h-254v-263h-109v626h392v-110z" />
    <glyph glyph-name="G" unicode="G" horiz-adv-x="628" 
d="M587 473l-108 -45q-59 100 -152 100q-84 0 -129 -69q-40 -59 -40 -151q0 -78 41 -135q45 -63 117 -63q63 0 102 41q40 40 40 105h-144v112h252v-360h-108v36q-60 -45 -142 -45q-128 0 -203 88q-72 84 -72 221q0 142 71 233q77 98 215 98q163 0 260 -166z" />
    <glyph glyph-name="H" unicode="H" horiz-adv-x="565" 
d="M524 8h-108v259h-266v-259h-109v626h109v-257h266v257h108v-626z" />
    <glyph glyph-name="I" unicode="I" horiz-adv-x="342" 
d="M225 8h-108v626h108v-626z" />
    <glyph glyph-name="J" unicode="J" horiz-adv-x="503" 
d="M462 232q0 -102 -53 -165q-57 -68 -156 -68q-169 0 -212 194l107 22q26 -102 105 -102q95 0 95 121v400h114v-402z" />
    <glyph glyph-name="K" unicode="K" horiz-adv-x="606" 
d="M565 8h-142l-225 267l-50 -50v-217h-107v626h107v-252l249 252h153l-277 -281z" />
    <glyph glyph-name="L" unicode="L" horiz-adv-x="499" 
d="M458 8h-417v626h109v-516h308v-110z" />
    <glyph glyph-name="M" unicode="M" horiz-adv-x="719" 
d="M678 8h-109v394l-160 -394h-99l-160 392v-392h-109v626h132l186 -457l187 457h132v-626z" />
    <glyph glyph-name="N" unicode="N" horiz-adv-x="585" 
d="M544 8h-117l-277 433v-433h-109v626h115l278 -432v432h110v-626z" />
    <glyph glyph-name="O" unicode="O" horiz-adv-x="623" 
d="M582 320q0 -132 -67 -221q-74 -100 -204 -100t-203 100q-67 89 -67 221q0 133 67 221q73 98 203 98q129 0 204 -98q67 -88 67 -221zM465 320q0 85 -36 141q-41 65 -118 65t-118 -65q-36 -56 -36 -141q0 -83 37 -140q42 -67 117 -67q76 0 118 66q36 57 36 141z" />
    <glyph glyph-name="P" unicode="P" horiz-adv-x="525" 
d="M484 449q0 -90 -66 -141q-61 -44 -151 -44h-117v-256h-109v626h226q93 0 151 -40q66 -48 66 -145zM369 449q0 74 -104 74h-115v-148h115q104 0 104 74z" />
    <glyph glyph-name="Q" unicode="Q" horiz-adv-x="669" 
d="M628 44l-85 -82q-21 23 -81 84q-64 -47 -151 -47q-130 0 -203 100q-67 89 -67 221q0 133 67 221q73 98 203 98q129 0 204 -98q67 -88 67 -221q0 -105 -44 -185q55 -55 90 -91zM465 320q0 85 -36 141q-41 65 -118 65t-118 -65q-36 -56 -36 -141q0 -83 37 -140
q42 -67 117 -67q37 0 66 15l-54 49l78 82q16 -13 48 -41q16 47 16 102z" />
    <glyph glyph-name="R" unicode="R" horiz-adv-x="556" 
d="M515 8h-130l-135 256h-100v-256h-109v626h224q92 0 152 -43q68 -49 68 -142q0 -59 -31 -104q-32 -45 -84 -63zM368 449q0 74 -99 74h-119v-148h119q99 0 99 74z" />
    <glyph glyph-name="S" unicode="S" horiz-adv-x="540" 
d="M499 190q0 -97 -75 -148q-64 -43 -160 -43q-178 0 -223 193l104 43q31 -122 119 -122q47 0 79 16q39 20 39 61q0 37 -47 61q-9 5 -95 37q-85 32 -120 60q-61 47 -61 122q0 169 209 169q91 0 142 -39q51 -38 82 -131l-106 -45q-20 61 -41 80q-23 22 -77 22q-92 0 -92 -63
q0 -19 45 -42q17 -7 76 -29q96 -36 135 -67q67 -51 67 -135z" />
    <glyph glyph-name="T" unicode="T" horiz-adv-x="578" 
d="M537 523h-194v-515h-109v515h-193v111h496v-111z" />
    <glyph glyph-name="U" unicode="U" horiz-adv-x="580" 
d="M539 257q0 -258 -249 -258t-249 258v377h109v-364q0 -86 28 -120q31 -37 112 -37t111 37q29 34 29 120v364h109v-377z" />
    <glyph glyph-name="V" unicode="V" horiz-adv-x="668" 
d="M627 634l-241 -626h-103l-242 626h123l170 -450l170 450h123z" />
    <glyph glyph-name="W" unicode="W" horiz-adv-x="872" 
d="M831 634l-178 -626h-108l-109 402l-109 -402h-108l-178 626h124l108 -407l110 407h106l110 -407l109 407h123z" />
    <glyph glyph-name="X" unicode="X" horiz-adv-x="714" 
d="M672 8h-136l-180 241l-178 -241h-136l247 333l-217 293h136l148 -201l150 201h136l-217 -293z" />
    <glyph glyph-name="Y" unicode="Y" horiz-adv-x="691" 
d="M650 634l-250 -337l-1 -289h-107l-1 288l-250 338h136l169 -227l168 227h136z" />
    <glyph glyph-name="Z" unicode="Z" horiz-adv-x="520" 
d="M479 8h-438v93l296 423h-287v110h429v-97l-293 -419h293v-110z" />
    <glyph glyph-name="bracketleft" unicode="[" horiz-adv-x="341" 
d="M285 -91h-229v825h229v-93h-137v-640h137v-92z" />
    <glyph glyph-name="backslash" unicode="\" horiz-adv-x="285" 
d="M267 -63l-90 -23l-160 792l91 21z" />
    <glyph glyph-name="bracketright" unicode="]" horiz-adv-x="341" 
d="M285 -91h-229v92h137v640h-137v93h229v-825z" />
    <glyph glyph-name="asciicircum" unicode="^" horiz-adv-x="418" 
d="M392 343h-91l-92 180l-92 -180h-91l150 296h66z" />
    <glyph glyph-name="underscore" unicode="_" horiz-adv-x="512" 
d="M512 -144h-512v92h512v-92z" />
    <glyph glyph-name="grave" unicode="`" horiz-adv-x="341" 
d="M273 513l-39 -40l-166 136l64 66z" />
    <glyph glyph-name="a" unicode="a" horiz-adv-x="449" 
d="M418 7h-100q-10 26 -13 43q-58 -51 -132 -51q-57 0 -96 29q-46 33 -46 92q0 152 263 165q-13 59 -70 59q-52 0 -85 -56l-92 42q61 109 177 109q87 0 133 -49q46 -50 46 -136v-174q0 -36 15 -73zM293 192q-161 0 -161 -72q0 -26 41 -26q96 0 120 98z" />
    <glyph glyph-name="b" unicode="b" horiz-adv-x="474" 
d="M443 232q0 -95 -48 -161q-53 -72 -143 -72q-68 0 -113 37v-28h-108v626h108v-228q51 33 108 33q89 0 144 -62q52 -58 52 -145zM328 222q0 48 -26 78t-66 30q-37 0 -64 -30q-28 -30 -28 -76q0 -52 26 -83q27 -33 71 -33q39 0 62 33q25 32 25 81z" />
    <glyph glyph-name="c" unicode="c" horiz-adv-x="449" 
d="M418 152q-72 -153 -193 -153q-87 0 -142 68q-52 63 -52 151q0 92 50 154q54 67 144 67q120 0 190 -131l-102 -44q-29 67 -88 67q-38 0 -60 -37q-20 -31 -20 -76q0 -40 21 -73q23 -37 59 -37q55 0 92 88z" />
    <glyph glyph-name="d" unicode="d" horiz-adv-x="474" 
d="M443 8h-108v28q-45 -37 -113 -37q-89 0 -143 72q-48 66 -48 161q0 87 54 146q54 61 142 61q57 0 108 -33v228h108v-626zM330 224q0 46 -27 76q-28 30 -64 30q-41 0 -67 -30t-26 -78q0 -49 25 -81q25 -33 62 -33q45 0 70 33q27 31 27 83z" />
    <glyph glyph-name="e" unicode="e" horiz-adv-x="439" 
d="M409 125q-39 -60 -71 -87q-48 -39 -115 -39q-97 0 -148 68q-44 59 -44 156q0 93 48 152q52 64 142 64q83 0 133 -59q50 -57 50 -142v-53h-256q12 -76 79 -76q35 0 58 21q10 11 31 45zM284 293q-12 37 -63 37q-47 0 -64 -37h127z" />
    <glyph glyph-name="f" unicode="f" horiz-adv-x="344" 
d="M313 341h-99v-333h-109v333h-74v110h74v49q0 134 118 134h90v-111h-75q-17 0 -21 -5q-3 -5 -3 -23v-44h99v-110z" />
    <glyph glyph-name="g" unicode="g" horiz-adv-x="451" 
d="M420 61q0 -89 -51 -145q-53 -55 -140 -55q-129 0 -193 124l98 49q37 -64 95 -64q34 0 58 21q23 23 23 59v16q-38 -30 -88 -30q-81 0 -136 59q-55 58 -55 142q0 85 55 143q54 59 136 59q57 0 89 -25v20h109v-373zM311 240q0 39 -24 65q-26 25 -65 25q-33 0 -54 -28
q-23 -28 -23 -65q0 -36 23 -64q22 -28 54 -28q40 0 65 26q24 27 24 69z" />
    <glyph glyph-name="h" unicode="h" horiz-adv-x="450" 
d="M419 8h-109v248q0 38 -15 57q-14 17 -53 17q-66 0 -103 -81v-241h-108v626h108v-227q44 32 103 32q177 0 177 -186v-245z" />
    <glyph glyph-name="i" unicode="i" horiz-adv-x="307" 
d="M208 526h-109v108h109v-108zM208 8h-109v426h109v-426z" />
    <glyph glyph-name="j" unicode="j" horiz-adv-x="262" 
d="M231 526h-108v108h108v-108zM231 16q0 -65 -26 -108q-33 -51 -92 -51h-82v111h66q26 0 26 45v421h108v-418z" />
    <glyph glyph-name="k" unicode="k" horiz-adv-x="449" 
d="M418 8h-130l-119 192l-30 -26v-166h-108v626h108v-313l111 113h148l-151 -157z" />
    <glyph glyph-name="l" unicode="l" horiz-adv-x="307" 
d="M208 8h-109v626h109v-626z" />
    <glyph glyph-name="m" unicode="m" horiz-adv-x="674" 
d="M643 8h-108v257q0 65 -51 65q-55 0 -96 -51q1 -15 1 -22v-249h-108v254q0 68 -49 68q-54 0 -93 -56v-266h-108v426h108v-26q42 31 93 31q79 0 123 -54q62 54 129 54q80 0 122 -53q37 -47 37 -124v-254z" />
    <glyph glyph-name="n" unicode="n" horiz-adv-x="449" 
d="M418 8h-109v239q0 83 -68 83q-63 0 -102 -56v-266h-108v426h108v-27q38 32 106 32q173 0 173 -192v-239z" />
    <glyph glyph-name="o" unicode="o" horiz-adv-x="495" 
d="M464 214q0 -94 -61 -154q-61 -61 -155 -61q-95 0 -156 61q-61 60 -61 154q0 97 60 160q61 65 157 65t155 -64q61 -63 61 -161zM348 214q0 51 -26 83q-27 33 -74 33q-48 0 -75 -33q-27 -32 -27 -83q0 -46 28 -75q28 -31 74 -31t74 30q26 29 26 76z" />
    <glyph glyph-name="p" unicode="p" horiz-adv-x="474" 
d="M443 211q0 -90 -52 -150q-55 -62 -144 -62q-63 0 -108 31v-173h-108v577h108v-30q42 35 113 35q90 0 143 -71q48 -63 48 -157zM328 216q0 49 -25 81q-23 33 -62 33q-44 0 -71 -32q-26 -32 -26 -84q0 -46 28 -75q27 -31 64 -31q40 0 66 31q26 29 26 77z" />
    <glyph glyph-name="q" unicode="q" horiz-adv-x="474" 
d="M443 -143h-108v173q-45 -31 -108 -31q-89 0 -143 62q-53 60 -53 150q0 94 48 157q54 71 143 71q71 0 113 -35v30h108v-577zM330 214q0 52 -27 84q-25 32 -70 32q-37 0 -62 -33q-25 -32 -25 -81q0 -48 26 -77q26 -31 67 -31q36 0 64 31q27 29 27 75z" />
    <glyph glyph-name="r" unicode="r" horiz-adv-x="298" 
d="M267 323q-128 0 -128 -99v-216h-108v426h108v-29q37 25 128 29v-111z" />
    <glyph glyph-name="s" unicode="s" horiz-adv-x="437" 
d="M407 136q0 -69 -58 -106q-47 -31 -115 -31q-65 0 -110 27q-48 28 -93 94l100 46q25 -34 47 -46t56 -12q59 0 59 28q0 13 -32 25q-29 8 -57 18q-75 23 -107 45q-51 34 -51 89q0 63 52 97q44 29 111 29q125 0 187 -105l-96 -52q-38 48 -91 48q-50 0 -50 -19q0 -13 17 -21
q10 -5 60 -20q88 -29 114 -44q57 -33 57 -90z" />
    <glyph glyph-name="t" unicode="t" horiz-adv-x="323" 
d="M292 328h-88v-184q0 -26 25 -26h60v-110h-85q-109 0 -109 129v191h-64v111h64v97h109v-97h88v-111z" />
    <glyph glyph-name="u" unicode="u" horiz-adv-x="449" 
d="M418 8h-109v29q-50 -38 -107 -38q-171 0 -171 188v247h108v-253q0 -40 14 -57q13 -16 49 -16q29 0 60 21q31 22 47 52v253h109v-426z" />
    <glyph glyph-name="v" unicode="v" horiz-adv-x="514" 
d="M483 434l-176 -426h-100l-176 426h119l107 -265l108 265h118z" />
    <glyph glyph-name="w" unicode="w" horiz-adv-x="785" 
d="M755 434l-164 -426h-106l-93 250l-92 -250h-105l-164 426h123l93 -264l92 264h106l94 -264l92 264h124z" />
    <glyph glyph-name="x" unicode="x" horiz-adv-x="567" 
d="M537 8h-138l-116 141l-116 -141h-136l183 226l-162 200h137l94 -116l94 116h137l-163 -200z" />
    <glyph glyph-name="y" unicode="y" horiz-adv-x="470" 
d="M439 434l-177 -467q-24 -65 -72 -88q-37 -20 -116 -21v114q45 0 56 4q18 6 28 31l17 47l-144 380h119l86 -225l85 225h118z" />
    <glyph glyph-name="z" unicode="z" horiz-adv-x="387" 
d="M356 8h-325v86l174 229h-169v111h320v-89l-173 -227h173v-110z" />
    <glyph glyph-name="braceleft" unicode="{" horiz-adv-x="297" 
d="M256 -91h-77q-78 0 -78 89v232q0 46 -38 46h-22v90h22q38 0 38 46v232q0 90 78 90h77v-76h-46q-16 0 -16 -16v-217q0 -70 -43 -104q43 -34 43 -105v-216q0 -15 16 -15h46v-76z" />
    <glyph glyph-name="bar" unicode="|" horiz-adv-x="195" 
d="M143 363h-92v276h92v-276zM143 -1h-92v277h92v-277z" />
    <glyph glyph-name="braceright" unicode="}" horiz-adv-x="297" 
d="M256 276h-23q-37 0 -37 -46v-232q0 -89 -78 -89h-77v76h46q16 0 16 15v216q0 71 43 105q-43 34 -43 104v217q0 16 -16 16h-46v76h77q78 0 78 -90v-232q0 -46 37 -46h23v-90z" />
    <glyph glyph-name="asciitilde" unicode="~" horiz-adv-x="341" 
d="M330 604q-32 -57 -38 -64q-25 -30 -65 -30q-28 0 -65 23q-38 22 -49 22q-12 0 -33 -51l-69 39q21 47 36 66q27 30 66 30q28 0 65 -22q38 -23 49 -23q12 0 31 44z" />
    <glyph glyph-name="currency" unicode="&#xa4;" 
d="M913 368q0 -122 -84 -247l78 -78l-70 -70l-80 78q-125 -84 -245 -84t-245 84l-80 -78l-70 70l78 78q-84 125 -84 247q0 119 86 247l-79 78l69 71l78 -79q125 84 247 84q120 0 245 -84l80 78l70 -70l-78 -78q84 -125 84 -247zM808 368q0 123 -87 209q-86 87 -209 87
t-209 -87q-87 -86 -87 -209t87 -209q86 -87 209 -87t209 87q87 86 87 209z" />
    <glyph glyph-name="section" unicode="&#xa7;" 
d="M728 621l-92 -53q-24 65 -48 93q-30 36 -76 36q-87 0 -87 -67q0 -41 58 -71q47 -18 95 -35q142 -55 142 -158q0 -76 -79 -127q74 -59 74 -144q0 -79 -67 -125q-57 -39 -134 -39q-154 0 -218 168l94 45q41 -106 124 -106q32 0 61 17q31 15 31 40q0 37 -54 67q-17 9 -88 35
q-75 28 -109 55q-53 43 -53 114q0 82 78 130q-63 54 -63 134q0 86 59 133q52 42 136 42q83 0 136 -51q44 -41 80 -133zM612 366q0 26 -41 48q-36 22 -70 22q-38 0 -65 -19q-26 -18 -26 -51q0 -30 46 -50q39 -18 72 -18q34 0 60 19q24 18 24 49z" />
    <glyph glyph-name="dieresis" unicode="&#xa8;" 
d="M694 682h-129v129h129v-129zM460 682h-129v129h129v-129z" />
    <glyph glyph-name="degree" unicode="&#xb0;" 
d="M378 738q0 -51 -36 -86q-36 -36 -86 -36t-86 36q-36 35 -36 86q0 50 36 86t86 36t86 -36t36 -86zM307 738q0 20 -15 36q-16 15 -36 15t-36 -15q-15 -16 -15 -36q0 -21 15 -36q16 -16 36 -16t36 16q15 15 15 36z" />
    <glyph glyph-name="plusminus" unicode="&#xb1;" 
d="M866 423h-297v-198h-114v198h-297v109h297v197h114v-197h297v-109zM866 31h-708v109h708v-109z" />
    <glyph glyph-name="periodcentered" unicode="&#xb7;" 
d="M609 271h-194v194h194v-194z" />
    <glyph glyph-name="periodcentered" unicode="&#x2022;" 
d="M609 271h-194v194h194v-194z" />
    <glyph glyph-name="multiply" unicode="&#xd7;" 
d="M850 115l-73 -73l-265 266l-265 -266l-73 73l265 265l-265 266l73 72l265 -265l265 265l73 -72l-265 -266z" />
    <glyph glyph-name="agrave" unicode="&#xe0;" 
d="M685 631l-27 -66l-299 76l47 103zM770 8h-119q-10 26 -15 49q-62 -58 -149 -58q-104 0 -169 86q-58 78 -58 184q0 104 73 179t180 75q64 0 118 -31v5h118v-401q0 -30 21 -88zM630 259q0 67 -29 107q-32 43 -91 43q-55 0 -92 -42q-36 -42 -36 -98q0 -60 29 -106
q32 -51 84 -51q65 0 100 39q35 40 35 108z" />
    <glyph glyph-name="aacute" unicode="&#xe1;" 
d="M706 677l-280 -112l-46 102l299 77zM770 8h-119q-10 26 -15 49q-62 -58 -149 -58q-104 0 -169 86q-58 78 -58 184q0 104 73 179t180 75q64 0 118 -31v5h118v-401q0 -30 21 -88zM630 259q0 67 -29 107q-32 43 -91 43q-55 0 -92 -42q-36 -42 -36 -98q0 -60 29 -106
q32 -51 84 -51q65 0 100 39q35 40 35 108z" />
    <glyph glyph-name="egrave" unicode="&#xe8;" 
d="M685 631l-27 -66l-299 76l47 103zM739 153q-91 -154 -226 -154q-110 0 -170 82q-53 74 -53 185q0 108 57 179q63 78 169 78q99 0 161 -71q57 -68 57 -168v-55h-323q15 -116 102 -116q70 0 122 94zM606 341q-26 69 -90 69q-66 0 -95 -69h185z" />
    <glyph glyph-name="eacute" unicode="&#xe9;" 
d="M695 677l-279 -112l-46 102l299 77zM739 153q-91 -154 -226 -154q-110 0 -170 82q-53 74 -53 185q0 108 57 179q63 78 169 78q99 0 161 -71q57 -68 57 -168v-55h-323q15 -116 102 -116q70 0 122 94zM606 341q-26 69 -90 69q-66 0 -95 -69h185z" />
    <glyph glyph-name="ecircumflex" unicode="&#xea;" 
d="M705 598h-101l-90 36l-94 -36h-101l130 102h126zM739 153q-91 -154 -226 -154q-110 0 -170 82q-53 74 -53 185q0 108 57 179q63 78 169 78q99 0 161 -71q57 -68 57 -168v-55h-323q15 -116 102 -116q70 0 122 94zM606 341q-26 69 -90 69q-66 0 -95 -69h185z" />
    <glyph glyph-name="igrave" unicode="&#xec;" 
d="M680 631l-27 -66l-299 76l46 103zM571 8h-117v515h117v-515z" />
    <glyph glyph-name="iacute" unicode="&#xed;" 
d="M665 677l-280 -112l-46 102l299 77zM571 8h-117v515h117v-515z" />
    <glyph glyph-name="ograve" unicode="&#xf2;" 
d="M685 631l-27 -66l-299 76l47 103zM770 255q0 -112 -73 -184q-72 -72 -185 -72t-185 72q-73 72 -73 184q0 115 72 191q72 77 186 77q115 0 186 -76q72 -76 72 -192zM648 255q0 66 -36 111q-35 44 -100 44t-100 -44q-36 -45 -36 -111q0 -62 38 -102q37 -41 98 -41
q62 0 99 40t37 103z" />
    <glyph glyph-name="oacute" unicode="&#xf3;" 
d="M695 677l-279 -112l-46 102l299 77zM770 255q0 -112 -73 -184q-72 -72 -185 -72t-185 72q-73 72 -73 184q0 115 72 191q72 77 186 77q115 0 186 -76q72 -76 72 -192zM648 255q0 66 -36 111q-35 44 -100 44t-100 -44q-36 -45 -36 -111q0 -62 38 -102q37 -41 98 -41
q62 0 99 40t37 103z" />
    <glyph glyph-name="divide" unicode="&#xf7;" 
d="M581 565h-138v137h138v-137zM866 325h-708v109h708v-109zM581 59h-138v137h138v-137z" />
    <glyph glyph-name="ugrave" unicode="&#xf9;" 
d="M685 631l-27 -66l-299 76l47 103zM742 8h-117v51q-68 -60 -142 -60q-201 0 -201 222v293h117v-302q0 -54 17 -75q18 -26 67 -26q42 0 83 31q37 27 59 67v305h117v-506z" />
    <glyph glyph-name="uacute" unicode="&#xfa;" 
d="M695 677l-279 -112l-46 102l299 77zM742 8h-117v51q-68 -60 -142 -60q-201 0 -201 222v293h117v-302q0 -54 17 -75q18 -26 67 -26q42 0 83 31q37 27 59 67v305h117v-506z" />
    <glyph glyph-name="udieresis" unicode="&#xfc;" 
d="M691 565h-123v122h123v-122zM457 565h-123v122h123v-122zM742 8h-117v51q-68 -60 -142 -60q-201 0 -201 222v293h117v-302q0 -54 17 -75q18 -26 67 -26q42 0 83 31q37 27 59 67v305h117v-506z" />
    <glyph glyph-name="amacron" unicode="&#x101;" 
d="M694 611h-344v92h344v-92zM770 8h-119q-10 26 -15 49q-62 -58 -149 -58q-104 0 -169 86q-58 78 -58 184q0 104 73 179t180 75q64 0 118 -31v5h118v-401q0 -30 21 -88zM630 259q0 67 -29 107q-32 43 -91 43q-55 0 -92 -42q-36 -42 -36 -98q0 -60 29 -106q32 -51 84 -51
q65 0 100 39q35 40 35 108z" />
    <glyph glyph-name="emacron" unicode="&#x113;" 
d="M684 611h-344v92h344v-92zM739 153q-91 -154 -226 -154q-110 0 -170 82q-53 74 -53 185q0 108 57 179q63 78 169 78q99 0 161 -71q57 -68 57 -168v-55h-323q15 -116 102 -116q70 0 122 94zM606 341q-26 69 -90 69q-66 0 -95 -69h185z" />
    <glyph glyph-name="ecaron" unicode="&#x11b;" 
d="M705 700l-130 -102h-126l-130 102h101l94 -36l90 36h101zM739 153q-91 -154 -226 -154q-110 0 -170 82q-53 74 -53 185q0 108 57 179q63 78 169 78q99 0 161 -71q57 -68 57 -168v-55h-323q15 -116 102 -116q70 0 122 94zM606 341q-26 69 -90 69q-66 0 -95 -69h185z" />
    <glyph glyph-name="imacron" unicode="&#x12b;" 
d="M684 611h-344v92h344v-92zM571 8h-117v515h117v-515z" />
    <glyph glyph-name="nacute" unicode="&#x144;" 
d="M706 677l-280 -112l-46 102l299 77zM742 8h-117v287q0 116 -93 116q-80 0 -133 -78v-325h-117v506h117v-37q63 46 139 46q204 0 204 -228v-287z" />
    <glyph glyph-name="ncaron" unicode="&#x148;" 
d="M705 700l-130 -102h-126l-130 102h101l94 -36l90 36h101zM742 8h-117v287q0 116 -93 116q-80 0 -133 -78v-325h-117v506h117v-37q63 46 139 46q204 0 204 -228v-287z" />
    <glyph glyph-name="omacron" unicode="&#x14d;" 
d="M684 611h-344v92h344v-92zM770 255q0 -112 -73 -184q-72 -72 -185 -72t-185 72q-73 72 -73 184q0 115 72 191q72 77 186 77q115 0 186 -76q72 -76 72 -192zM648 255q0 66 -36 111q-35 44 -100 44t-100 -44q-36 -45 -36 -111q0 -62 38 -102q37 -41 98 -41q62 0 99 40
t37 103z" />
    <glyph glyph-name="umacron" unicode="&#x16b;" 
d="M684 611h-344v92h344v-92zM742 8h-117v51q-68 -60 -142 -60q-201 0 -201 222v293h117v-302q0 -54 17 -75q18 -26 67 -26q42 0 83 31q37 27 59 67v305h117v-506z" />
    <glyph glyph-name="uni01CE" unicode="&#x1ce;" 
d="M715 700l-129 -102h-127l-129 102h100l94 -36l90 36h101zM770 8h-119q-10 26 -15 49q-62 -58 -149 -58q-104 0 -169 86q-58 78 -58 184q0 104 73 179t180 75q64 0 118 -31v5h118v-401q0 -30 21 -88zM630 259q0 67 -29 107q-32 43 -91 43q-55 0 -92 -42q-36 -42 -36 -98
q0 -60 29 -106q32 -51 84 -51q65 0 100 39q35 40 35 108z" />
    <glyph glyph-name="uni01D0" unicode="&#x1d0;" 
d="M705 700l-130 -102h-126l-130 102h101l94 -36l90 36h101zM571 8h-117v515h117v-515z" />
    <glyph glyph-name="uni01D2" unicode="&#x1d2;" 
d="M705 700l-130 -102h-126l-130 102h101l94 -36l90 36h101zM770 255q0 -112 -73 -184q-72 -72 -185 -72t-185 72q-73 72 -73 184q0 115 72 191q72 77 186 77q115 0 186 -76q72 -76 72 -192zM648 255q0 66 -36 111q-35 44 -100 44t-100 -44q-36 -45 -36 -111q0 -62 38 -102
q37 -41 98 -41q62 0 99 40t37 103z" />
    <glyph glyph-name="uni01D4" unicode="&#x1d4;" 
d="M705 700l-130 -102h-126l-130 102h101l94 -36l90 36h101zM742 8h-117v51q-68 -60 -142 -60q-201 0 -201 222v293h117v-302q0 -54 17 -75q18 -26 67 -26q42 0 83 31q37 27 59 67v305h117v-506z" />
    <glyph glyph-name="uni01D6" unicode="&#x1d6;" 
d="M684 736h-344v92h344v-92zM691 565h-123v122h123v-122zM457 565h-123v122h123v-122zM742 8h-117v51q-68 -60 -142 -60q-201 0 -201 222v293h117v-302q0 -54 17 -75q18 -26 67 -26q42 0 83 31q37 27 59 67v305h117v-506z" />
    <glyph glyph-name="uni01D8" unicode="&#x1d8;" 
d="M706 812l-280 -112l-46 102l299 77zM691 565h-123v122h123v-122zM457 565h-123v122h123v-122zM742 8h-117v51q-68 -60 -142 -60q-201 0 -201 222v293h117v-302q0 -54 17 -75q18 -26 67 -26q42 0 83 31q37 27 59 67v305h117v-506z" />
    <glyph glyph-name="uni01DA" unicode="&#x1da;" 
d="M705 828l-130 -102h-126l-130 102h111l84 -36l90 36h101zM691 565h-123v122h123v-122zM457 565h-123v122h123v-122zM742 8h-117v51q-68 -60 -142 -60q-201 0 -201 222v293h117v-302q0 -54 17 -75q18 -26 67 -26q42 0 83 31q37 27 59 67v305h117v-506z" />
    <glyph glyph-name="uni01DC" unicode="&#x1dc;" 
d="M651 766l-26 -66l-299 77l46 102zM691 565h-123v122h123v-122zM457 565h-123v122h123v-122zM742 8h-117v51q-68 -60 -142 -60q-201 0 -201 222v293h117v-302q0 -54 17 -75q18 -26 67 -26q42 0 83 31q37 27 59 67v305h117v-506z" />
    <glyph glyph-name="uni01F9" unicode="&#x1f9;" 
d="M685 631l-27 -66l-299 76l47 103zM742 8h-117v287q0 116 -93 116q-80 0 -133 -78v-325h-117v506h117v-37q63 46 139 46q204 0 204 -228v-287z" />
    <glyph glyph-name="uni01F9" unicode="&#xe7c8;" 
d="M685 631l-27 -66l-299 76l47 103zM742 8h-117v287q0 116 -93 116q-80 0 -133 -78v-325h-117v506h117v-37q63 46 139 46q204 0 204 -228v-287z" />
    <glyph glyph-name="uni0251" unicode="&#x251;" 
d="M770 8h-119q-10 26 -15 49q-62 -58 -149 -58q-104 0 -169 86q-58 78 -58 184q0 104 73 179t180 75q64 0 118 -31v5h118v-401q0 -30 21 -88zM630 259q0 67 -29 107q-32 43 -91 43q-55 0 -92 -42q-36 -42 -36 -98q0 -60 29 -106q32 -51 84 -51q65 0 100 39q35 40 35 108z
" />
    <glyph glyph-name="uni0261" unicode="&#x261;" 
d="M743 98q0 -106 -61 -172q-62 -70 -165 -70q-148 0 -221 138l103 50q43 -74 118 -74q52 0 82 37q26 32 27 88q-54 -45 -117 -45q-96 0 -163 68q-65 69 -65 167q0 100 65 169t163 69q63 0 117 -37v28h117v-416zM625 289q0 53 -31 87q-32 33 -85 33q-47 0 -77 -37
q-31 -38 -31 -87q0 -47 31 -84q32 -37 77 -37q54 0 85 35t31 90z" />
    <glyph glyph-name="caron" unicode="&#x2c7;" 
d="M731 797l-156 -101h-126l-156 101h130l91 -42l87 42h130z" />
    <glyph glyph-name="uni02C9" unicode="&#x2c9;" 
d="M684 699h-344v97h344v-97z" />
    <glyph glyph-name="Alpha" unicode="&#x391;" 
d="M878 8h-129l-82 200h-310l-82 -200h-129l309 745h114zM617 322l-105 258l-105 -258h210z" />
    <glyph glyph-name="Beta" unicode="&#x392;" 
d="M780 222q0 -104 -90 -163q-77 -51 -186 -51h-260v745h266q251 0 251 -201q0 -94 -71 -151q90 -64 90 -179zM639 552q0 87 -132 87h-146v-187h126q57 0 99 21q53 27 53 79zM658 222q0 61 -50 92q-41 24 -106 24h-141v-217h141q55 0 100 23q56 27 56 78z" />
    <glyph glyph-name="Gamma" unicode="&#x393;" 
d="M760 639h-377v-631h-119v745h496v-114z" />
    <glyph glyph-name="uni0394" unicode="&#x394;" 
d="M870 8h-716l358 774zM687 121l-175 375l-175 -375h350z" />
    <glyph glyph-name="Epsilon" unicode="&#x395;" 
d="M748 8h-472v745h472v-114h-354v-195h314v-114h-314v-209h354v-113z" />
    <glyph glyph-name="Zeta" unicode="&#x396;" 
d="M773 8h-522v104l374 527h-363v114h511v-103l-374 -529h374v-113z" />
    <glyph glyph-name="Eta" unicode="&#x397;" 
d="M800 8h-120v316h-336v-316h-120v745h120v-314h336v314h120v-745z" />
    <glyph glyph-name="Theta" unicode="&#x398;" 
d="M866 381q0 -157 -97 -267q-101 -115 -257 -115t-257 115q-97 110 -97 267q0 159 97 268q100 112 257 112t257 -112q97 -109 97 -268zM742 381q0 110 -59 185q-65 81 -171 81t-171 -81q-59 -75 -59 -185t59 -182q63 -78 171 -78t171 78q59 72 59 182zM690 249h-120v69
h-117v-69h-120v256h120v-72h117v72h120v-256z" />
    <glyph glyph-name="Iota" unicode="&#x399;" 
d="M570 8h-116v745h116v-745z" />
    <glyph glyph-name="Kappa" unicode="&#x39a;" 
d="M833 8h-159l-280 325l-65 -66v-259h-120v745h120v-323l321 323h159l-331 -334z" />
    <glyph glyph-name="Lambda" unicode="&#x39b;" 
d="M878 8h-128l-238 574l-238 -574h-128l309 745h114z" />
    <glyph glyph-name="Mu" unicode="&#x39c;" 
d="M891 8h-120v499l-205 -499h-108l-205 499v-499h-120v745h143l236 -579l236 579h143v-745z" />
    <glyph glyph-name="Nu" unicode="&#x39d;" 
d="M811 8h-123l-355 537v-537h-120v745h123l355 -538v538h120v-745z" />
    <glyph glyph-name="Xi" unicode="&#x39e;" 
d="M770 643h-516v110h516v-110zM729 352h-434v110h434v-110zM770 8h-516v109h516v-109z" />
    <glyph glyph-name="Omicron" unicode="&#x39f;" 
d="M834 381q0 -157 -79 -263q-87 -119 -243 -119t-243 119q-79 106 -79 263q0 158 79 263q87 117 243 117t243 -117q79 -105 79 -263zM711 381q0 110 -46 182q-55 81 -153 81t-153 -81q-46 -72 -46 -182q0 -108 47 -182q55 -84 152 -84q98 0 152 84q47 73 47 182z" />
    <glyph glyph-name="Pi" unicode="&#x3a0;" 
d="M783 8h-117v635h-308v-635h-117v745h542v-745z" />
    <glyph glyph-name="Rho" unicode="&#x3a1;" 
d="M776 538q0 -105 -79 -165q-70 -52 -180 -52h-149v-313h-120v745h269q112 0 180 -49q79 -57 79 -166zM653 538q0 101 -139 101h-146v-203h146q139 0 139 102z" />
    <glyph glyph-name="Sigma" unicode="&#x3a3;" 
d="M788 8h-552v106l267 272l-267 272v95h535v-113h-353l252 -253l-264 -267h382v-112z" />
    <glyph glyph-name="Tau" unicode="&#x3a4;" 
d="M807 639h-235v-631h-120v631h-235v114h590v-114z" />
    <glyph glyph-name="Upsilon" unicode="&#x3a5;" 
d="M870 753l-298 -403v-342h-119v341l-299 404h147l211 -286l213 286h145z" />
    <glyph glyph-name="Phi" unicode="&#x3a6;" 
d="M851 377q0 -264 -280 -294v-75h-118v75q-280 30 -280 294q0 263 280 293v83h118v-83q280 -30 280 -293zM733 377q0 159 -162 182v-365q162 22 162 183zM453 194v365q-162 -23 -162 -182q0 -161 162 -183z" />
    <glyph glyph-name="Chi" unicode="&#x3a7;" 
d="M878 8h-148l-217 295l-218 -295h-149l292 396l-257 349h146l186 -251l184 251h147l-258 -349z" />
    <glyph glyph-name="Psi" unicode="&#x3a8;" 
d="M855 530q0 -156 -64 -240q-70 -90 -220 -104v-178h-118v178q-150 14 -220 104q-64 83 -64 240v223h120v-223q0 -107 29 -157q38 -61 135 -74v454h118v-454q97 13 135 74q29 50 29 157v223h120v-223z" />
    <glyph glyph-name="uni03A9" unicode="&#x3a9;" 
d="M858 414q0 -189 -157 -294h110v-112h-268v144q98 41 143 97q49 63 49 165q0 107 -59 171t-164 64q-104 0 -164 -65q-59 -64 -59 -170q0 -102 49 -165q45 -56 143 -97v-144h-268v112h110q-157 105 -157 294q0 156 96 251q95 96 250 96t250 -96q96 -95 96 -251z" />
    <glyph glyph-name="alpha" unicode="&#x3b1;" 
d="M804 -1h-96q-68 0 -95 60q-65 -60 -145 -60q-111 0 -180 78q-68 75 -68 187q0 111 69 185t181 74q73 0 133 -36v27h116v-378q0 -17 15 -17h70v-120zM603 264q0 63 -35 104q-34 42 -98 42q-63 0 -96 -43q-31 -39 -31 -103t31 -107q34 -49 94 -49q57 0 98 50q37 47 37 106z
" />
    <glyph glyph-name="beta" unicode="&#x3b2;" 
d="M769 227q0 -103 -70 -168q-69 -65 -173 -65q-92 0 -157 55v-193h-114v641q0 117 59 188q63 76 175 76q88 0 149 -57t61 -146q0 -73 -58 -131q57 -25 92 -81q36 -55 36 -119zM647 227q0 114 -134 114h-62v115h52q36 0 57 34q18 30 18 68q0 40 -25 64q-25 25 -64 25
q-120 0 -120 -150v-276q46 -111 157 -111q53 0 86 32q35 31 35 85z" />
    <glyph glyph-name="gamma" unicode="&#x3b3;" 
d="M755 514l-168 -403v-255h-118v257l-128 273q-10 23 -65 23v114q71 -1 98 -12q43 -15 67 -66l84 -178l105 247h125z" />
    <glyph glyph-name="delta" unicode="&#x3b4;" 
d="M773 259q0 -106 -77 -183q-78 -77 -184 -77q-101 0 -181 77t-80 179q0 93 54 162q53 69 141 95l-152 139v102h382v-114h-197l158 -136q73 -61 99 -104q37 -59 37 -140zM651 259q0 65 -35 106q-34 41 -98 41q-67 0 -106 -41t-39 -110q0 -55 43 -98q42 -44 96 -44
q61 0 100 42t39 104z" />
    <glyph glyph-name="epsilon" unicode="&#x3b5;" 
d="M706 47q-92 -48 -188 -48q-78 0 -131 37q-62 42 -62 119q0 70 64 111q-58 50 -58 108q0 76 63 116q52 33 130 33q60 0 148 -33l-50 -99q-62 19 -98 19q-73 0 -73 -39q0 -53 77 -53h86v-113h-74q-97 0 -97 -50q0 -43 75 -43q69 0 131 31z" />
    <glyph glyph-name="zeta" unicode="&#x3b6;" 
d="M710 29q0 -55 -45 -173h-124q49 103 49 164q0 19 -52 30q-35 5 -69 10q-155 34 -155 212q0 182 195 366h-164v115h341v-102q-252 -180 -252 -379q0 -68 46 -91q18 -10 100 -22q130 -19 130 -130z" />
    <glyph glyph-name="eta" unicode="&#x3b7;" 
d="M766 -144h-119v481q0 72 -62 72q-49 0 -84 -58v-351h-119v374q0 18 -10 18q-7 0 -47 -49l-73 65q44 55 66 74q41 33 91 33q42 0 66 -38q54 46 123 46q80 0 124 -51q44 -49 44 -131v-485z" />
    <glyph glyph-name="theta" unicode="&#x3b8;" 
d="M760 381q0 -153 -47 -252q-64 -130 -201 -130q-136 0 -200 131q-48 99 -48 251q0 150 49 249q65 131 199 131t199 -131q49 -99 49 -249zM637 447q-20 200 -125 200q-108 0 -127 -200h252zM638 333h-253q13 -219 127 -219q113 0 126 219z" />
    <glyph glyph-name="iota" unicode="&#x3b9;" 
d="M600 8h-80q-96 0 -96 118v388h107v-377q0 -18 17 -18h52v-111z" />
    <glyph glyph-name="kappa" unicode="&#x3ba;" 
d="M748 514l-225 -216l221 -290h-144l-160 210l-30 -27v-183h-116v506h116v-164l174 164h164z" />
    <glyph glyph-name="lambda" unicode="&#x3bb;" 
d="M798 8h-72q-61 0 -97 24q-35 26 -58 83l-88 227l-137 -334h-127l204 493l-43 108q-12 30 -30 30h-81v114h82q99 0 136 -98l193 -494q15 -40 60 -40h58v-113z" />
    <glyph glyph-name="uni03BC" unicode="&#x3bc;" 
d="M764 -4q-112 2 -156 53q-56 -56 -133 -56q-53 0 -96 29v-166h-119v658h119v-312q0 -95 96 -95q89 0 89 95v312h119v-336q0 -39 16 -54q17 -13 65 -14v-114z" />
    <glyph glyph-name="nu" unicode="&#x3bd;" 
d="M755 514l-190 -506h-106l-190 506h125l119 -317l119 317h123z" />
    <glyph glyph-name="xi" unicode="&#x3be;" 
d="M711 20q0 -49 -45 -164h-128q53 110 53 164q0 14 -30 25q-56 21 -111 41q-65 27 -97 62q-40 45 -40 115q0 54 35 105q32 46 81 76q-70 52 -70 121q0 41 22 73h-54v115h361v-115h-131q-78 0 -78 -73q0 -32 33 -54q29 -18 60 -18h85v-115h-101q-49 0 -86 -33
q-37 -32 -37 -82q0 -37 34 -59q16 -11 63 -27q97 -34 121 -49q60 -39 60 -108z" />
    <glyph glyph-name="omicron" unicode="&#x3bf;" 
d="M763 255q0 -110 -71 -183q-69 -73 -180 -73q-110 0 -180 73q-71 73 -71 183q0 114 70 191q69 77 181 77t181 -77q70 -77 70 -191zM641 255q0 68 -30 109q-33 46 -99 46q-65 0 -98 -46q-31 -42 -31 -109q0 -63 33 -103q34 -40 96 -40q63 0 97 41q32 38 32 102z" />
    <glyph glyph-name="pi" unicode="&#x3c0;" 
d="M809 8h-86q-110 0 -110 126v269h-189v-395h-120v395h-89v111h594v-111h-76v-271q0 -14 -1 -11q1 -2 7 -2h70v-111z" />
    <glyph glyph-name="rho" unicode="&#x3c1;" 
d="M768 252q0 -116 -74 -187q-72 -72 -183 -72q-82 0 -140 42v-179h-115v387q0 121 67 199q70 81 188 81q116 0 186 -77q71 -76 71 -194zM645 252q0 157 -134 157q-68 0 -102 -45q-32 -41 -32 -112q0 -63 37 -104q36 -41 97 -41q64 0 99 40t35 105z" />
    <glyph glyph-name="sigma" unicode="&#x3c3;" 
d="M800 403h-107q37 -66 37 -148q0 -110 -71 -183q-69 -73 -180 -73q-110 0 -182 73q-73 73 -73 183q0 114 71 191q72 77 184 77q7 0 64 -9h257v-111zM607 255q0 155 -128 155q-65 0 -100 -46q-32 -41 -32 -109q0 -63 34 -103q35 -40 98 -40q64 0 98 41q30 38 30 102z" />
    <glyph glyph-name="tau" unicode="&#x3c4;" 
d="M744 403h-158v-268q0 -16 15 -16h64v-111h-88q-109 0 -109 126v269h-188v111h464v-111z" />
    <glyph glyph-name="upsilon" unicode="&#x3c5;" 
d="M749 228q0 -229 -237 -229t-237 229v286h119v-286q0 -68 26 -92q24 -25 92 -25t93 26q26 24 26 91v286h118v-286z" />
    <glyph glyph-name="phi" unicode="&#x3c6;" 
d="M802 258q0 -114 -59 -185q-58 -71 -171 -83v-134h-119v134q-112 13 -171 83q-60 70 -60 185t61 186q59 70 170 87v148h119v-148q112 -17 171 -87t59 -186zM679 258q0 133 -107 157v-310q60 11 85 52q22 36 22 101zM453 105v310q-108 -24 -108 -157q0 -132 108 -153z" />
    <glyph glyph-name="chi" unicode="&#x3c7;" 
d="M766 -144h-30q-55 0 -87 22q-31 21 -58 71l-77 140l-132 -226h-135l202 346q-9 16 -91 165q-14 27 -41 27h-48v113h62q54 0 87 -29q22 -20 54 -77l45 -80l110 186h133l-177 -306l112 -205q19 -33 71 -33v-114z" />
    <glyph glyph-name="psi" unicode="&#x3c8;" 
d="M827 277q0 -254 -255 -282v-139h-119v139q-256 28 -256 282v244h119v-244q0 -80 29 -116q31 -39 108 -50v568h119v-568q76 10 107 50q29 37 29 116v244h119v-244z" />
    <glyph glyph-name="omega" unicode="&#x3c9;" 
d="M881 241q0 -100 -59 -169q-62 -73 -160 -73q-95 0 -150 67q-56 -67 -150 -67q-99 0 -160 74q-59 69 -59 168q0 138 116 279l95 -62q-87 -108 -87 -217q0 -51 22 -87q25 -43 73 -43q45 0 67 31q22 27 22 71v149h121v-149q0 -44 22 -71q24 -31 68 -31q49 0 74 43
q21 35 21 87q0 109 -87 217l95 62q116 -141 116 -279z" />
    <glyph glyph-name="uni0401" unicode="&#x401;" 
d="M674 776h-110v104h110v-104zM463 776h-110v104h110v-104zM748 8h-472v745h472v-114h-354v-195h314v-114h-314v-209h354v-113z" />
    <glyph glyph-name="uni0410" unicode="&#x410;" 
d="M878 8h-129l-82 200h-310l-82 -200h-129l309 745h114zM617 322l-105 258l-105 -258h210z" />
    <glyph glyph-name="uni0411" unicode="&#x411;" 
d="M791 230q0 -115 -81 -172q-70 -50 -189 -50h-288v745h499v-114h-379v-186h168q270 0 270 -223zM669 230q0 64 -45 90q-35 19 -106 19h-165v-218h165q151 0 151 109z" />
    <glyph glyph-name="uni0412" unicode="&#x412;" 
d="M780 222q0 -104 -90 -163q-77 -51 -186 -51h-260v745h266q251 0 251 -201q0 -94 -71 -151q90 -59 90 -179zM639 552q0 87 -132 87h-146v-187h126q57 0 99 21q53 27 53 79zM658 222q0 61 -50 92q-41 24 -106 24h-141v-217h141q55 0 100 23q56 27 56 78z" />
    <glyph glyph-name="uni0413" unicode="&#x413;" 
d="M760 639h-377v-631h-119v745h496v-114z" />
    <glyph glyph-name="uni0414" unicode="&#x414;" 
d="M894 -144h-121v146h-522v-146h-121v261h86q144 283 173 636h418v-636h87v-261zM686 117v521h-192q-34 -263 -150 -521h342z" />
    <glyph glyph-name="uni0415" unicode="&#x415;" 
d="M748 8h-472v745h472v-114h-354v-195h314v-114h-314v-209h354v-113z" />
    <glyph glyph-name="uni0416" unicode="&#x416;" 
d="M926 8h-125q-45 122 -83 212q-43 100 -146 116v-328h-121v328q-57 -9 -89 -36q-30 -26 -56 -82q-27 -60 -84 -210h-124q24 65 46 132q29 75 56 128q45 87 107 126q-54 45 -76 131q-29 116 -64 116h-53v112h48q101 0 142 -76q24 -70 46 -142q29 -78 101 -81v299h121v-299
q71 3 100 81q23 71 47 142q41 76 143 76h48v-112h-53q-28 0 -47 -47q-7 -17 -20 -69q-22 -85 -73 -130q61 -38 107 -127q27 -52 102 -260z" />
    <glyph glyph-name="uni0417" unicode="&#x417;" 
d="M776 226q0 -107 -86 -170q-77 -57 -187 -57q-129 0 -259 66l46 107q113 -56 213 -56q59 0 100 25q51 28 51 85q0 62 -57 96q-48 29 -113 29q-16 0 -86 -5v121l80 -5q54 0 94 20q53 26 53 75q0 45 -44 69q-34 18 -83 18q-83 0 -199 -57l-48 107q136 67 247 67
q100 0 170 -49q78 -56 78 -155q0 -91 -72 -145q102 -58 102 -186z" />
    <glyph glyph-name="uni0418" unicode="&#x418;" 
d="M806 8h-120v526l-358 -526h-110v745h120v-531l359 531h109v-745z" />
    <glyph glyph-name="uni0419" unicode="&#x419;" 
d="M678 879q-19 -134 -166 -134t-166 134h87q2 -72 79 -72t79 72h87zM806 8h-120v526l-358 -526h-110v745h120v-531l359 531h109v-745z" />
    <glyph glyph-name="uni041A" unicode="&#x41a;" 
d="M833 8h-159l-280 325l-65 -66v-259h-120v745h120v-323l321 323h159l-331 -334z" />
    <glyph glyph-name="uni041B" unicode="&#x41b;" 
d="M836 8h-120v633h-306v-455q0 -104 -62 -145q-49 -32 -160 -33v114q58 1 74 8q27 13 27 56v567h547v-745z" />
    <glyph glyph-name="uni041C" unicode="&#x41c;" 
d="M891 8h-120v499l-205 -499h-108l-205 499v-499h-120v745h143l236 -579l236 579h143v-745z" />
    <glyph glyph-name="uni041D" unicode="&#x41d;" 
d="M800 8h-120v316h-336v-316h-120v745h120v-314h336v314h120v-745z" />
    <glyph glyph-name="uni041E" unicode="&#x41e;" 
d="M834 381q0 -158 -79 -265q-88 -117 -243 -117q-154 0 -242 117q-80 106 -80 265t80 265q88 115 242 115t242 -115q80 -106 80 -265zM711 381q0 108 -45 178q-53 85 -154 85q-100 0 -154 -85q-45 -70 -45 -178q0 -105 45 -179q55 -87 154 -87q100 0 154 87q45 73 45 179z
" />
    <glyph glyph-name="uni041F" unicode="&#x41f;" 
d="M783 8h-118v633h-306v-633h-118v745h542v-745z" />
    <glyph glyph-name="uni0420" unicode="&#x420;" 
d="M776 538q0 -105 -79 -165q-70 -52 -180 -52h-149v-313h-120v745h269q112 0 180 -49q79 -57 79 -166zM653 538q0 101 -139 101h-146v-203h146q139 0 139 102z" />
    <glyph glyph-name="uni0421" unicode="&#x421;" 
d="M817 77q-126 -78 -255 -78q-159 0 -255 104q-96 103 -96 265q0 168 91 278q97 115 261 115q114 0 252 -75l-49 -100q-112 58 -203 58q-116 0 -176 -82q-53 -73 -53 -194q0 -115 56 -181q61 -71 172 -71q96 0 211 67z" />
    <glyph glyph-name="uni0422" unicode="&#x422;" 
d="M807 639h-235v-631h-120v631h-235v114h590v-114z" />
    <glyph glyph-name="uni0423" unicode="&#x423;" 
d="M819 753l-331 -642q-53 -103 -143 -103h-91v114h75q22 0 33 10q10 8 22 32l76 147l-257 442h135l183 -318l167 318h131z" />
    <glyph glyph-name="uni0424" unicode="&#x424;" 
d="M848 377q0 -264 -277 -294v-75h-119v75q-276 30 -276 294q0 263 276 293v83h119v-83q277 -30 277 -293zM725 377q0 157 -154 180v-358q154 24 154 178zM452 199v358q-153 -22 -153 -179t153 -179z" />
    <glyph glyph-name="uni0425" unicode="&#x425;" 
d="M878 8h-148l-217 295l-218 -295h-149l292 396l-257 349h146l186 -251l184 251h147l-258 -349z" />
    <glyph glyph-name="uni0426" unicode="&#x426;" 
d="M838 -144h-120v146h-532v751h120v-636h349v636h121v-636h62v-261z" />
    <glyph glyph-name="uni0427" unicode="&#x427;" 
d="M804 8h-120v372q-135 -116 -257 -116q-207 0 -207 228v261h120v-261q0 -57 13 -80q19 -32 74 -32q67 0 143 48q68 43 114 103v222h120v-745z" />
    <glyph glyph-name="uni0428" unicode="&#x428;" 
d="M855 8h-686v745h121v-632h163v632h119v-632h162v632h121v-745z" />
    <glyph glyph-name="uni0429" unicode="&#x429;" 
d="M874 -144h-120v146h-604v751h120v-636h164v636h121v-636h165v636h121v-636h33v-261z" />
    <glyph glyph-name="uni042A" unicode="&#x42a;" 
d="M848 239q0 -116 -81 -177q-73 -54 -192 -54h-242v631h-157v114h278v-285h121q273 0 273 -229zM725 239q0 116 -155 116h-116v-234h116q155 0 155 118z" />
    <glyph glyph-name="uni042B" unicode="&#x42b;" 
d="M877 8h-121v745h121v-745zM665 239q0 -117 -82 -177q-73 -54 -193 -54h-243v745h121v-285h122q275 0 275 -229zM541 239q0 68 -45 94q-35 22 -109 22h-119v-234h119q154 0 154 118z" />
    <glyph glyph-name="uni042C" unicode="&#x42c;" 
d="M763 239q0 -115 -78 -176q-71 -55 -187 -55h-237v745h119v-285h118q265 0 265 -229zM641 239q0 116 -146 116h-115v-234h115q146 0 146 118z" />
    <glyph glyph-name="uni042D" unicode="&#x42d;" 
d="M812 382q0 -164 -93 -271q-98 -112 -259 -112q-117 0 -253 73l56 100q109 -56 197 -56q94 0 152 55q60 57 75 152h-277v115h277q-14 91 -65 146q-57 60 -145 60q-79 0 -201 -58l-46 109q152 66 247 66q154 0 248 -114q87 -107 87 -265z" />
    <glyph glyph-name="uni042E" unicode="&#x42e;" 
d="M937 380q0 -156 -71 -261q-82 -120 -231 -120q-133 0 -214 100q-71 88 -85 226h-127v-317h-122v745h122v-313h128q15 137 85 223q81 98 213 98q149 0 231 -120q71 -104 71 -261zM812 380q0 105 -36 174q-47 90 -141 90q-95 0 -141 -90q-35 -69 -35 -174q0 -104 35 -174
q46 -90 141 -90t141 90q36 70 36 174z" />
    <glyph glyph-name="uni042F" unicode="&#x42f;" 
d="M793 9h-120v297h-118q-12 0 -25 1l-177 -299h-133l195 328q-117 63 -117 192q0 107 78 169q70 56 179 56h238v-744zM673 419v220h-118q-59 0 -94 -25q-40 -29 -40 -86q0 -56 41 -84q36 -25 93 -25h118z" />
    <glyph glyph-name="uni0430" unicode="&#x430;" 
d="M746 8h-72q-68 0 -87 50q-87 -59 -160 -59q-61 0 -105 38t-44 100q0 103 107 156q76 38 196 46v10q0 34 -12 48q-11 13 -46 13q-59 0 -165 -53l-48 105q128 61 213 61q84 0 130 -45q45 -45 45 -129v-230h48v-111zM581 181v50q-64 -5 -111 -23q-72 -25 -72 -71
q0 -25 29 -25q72 0 154 69z" />
    <glyph glyph-name="uni0431" unicode="&#x431;" 
d="M759 272q0 -115 -64 -192q-68 -81 -181 -81q-136 0 -200 120q-49 94 -49 245q0 140 51 252q66 145 190 145q23 0 65 -10q41 -10 46 -10q21 0 92 27v-116q-59 -26 -91 -26q-19 0 -57 10q-38 11 -55 11q-32 0 -64 -46q-31 -45 -47 -111q60 42 132 42q106 0 170 -78
q62 -74 62 -182zM637 272q0 63 -27 101q-29 45 -90 45q-46 0 -91 -40q-45 -39 -45 -85q0 -73 28 -121q33 -58 102 -58q64 0 96 48q27 42 27 110z" />
    <glyph glyph-name="uni0432" unicode="&#x432;" 
d="M719 160q0 -77 -57 -118q-51 -34 -131 -34h-226v506h215q186 0 186 -144q0 -60 -40 -94q53 -38 53 -116zM588 367q0 36 -72 36h-94v-76h92q74 0 74 40zM602 163q0 52 -92 52h-88v-96h90q90 0 90 44z" />
    <glyph glyph-name="uni0433" unicode="&#x433;" 
d="M700 403h-260v-395h-116v506h376v-111z" />
    <glyph glyph-name="uni0434" unicode="&#x434;" 
d="M781 -144h-118v144h-302v-144h-118v254h56q47 79 79 196q28 105 35 208h321v-404h47v-254zM614 110v291h-98q-22 -139 -91 -291h189z" />
    <glyph glyph-name="uni0435" unicode="&#x435;" 
d="M739 153q-91 -154 -226 -154q-109 0 -169 81q-54 73 -54 186q0 108 57 180q63 77 169 77q98 0 160 -71q58 -67 58 -168v-55h-323q15 -116 102 -116q70 0 122 94zM606 341q-26 69 -90 69q-66 0 -95 -69h185z" />
    <glyph glyph-name="uni0436" unicode="&#x436;" 
d="M860 8h-127l-60 127q-17 34 -38 47q-23 12 -64 15v-189h-119v189q-41 -3 -62 -15q-20 -12 -38 -47l-61 -127h-127l79 167q27 60 82 90q-30 24 -42 55q-9 25 -18 52q-13 33 -34 33h-38v109h38q70 0 104 -34q27 -28 47 -99q14 -52 70 -66v199h119v-199q41 10 60 40
q7 12 24 62q14 41 35 63q35 34 104 34h37v-109h-37q-21 0 -28 -22q-8 -21 -25 -63q-12 -31 -42 -55q55 -30 82 -90z" />
    <glyph glyph-name="uni0437" unicode="&#x437;" 
d="M711 165q0 -82 -60 -124q-59 -42 -161 -42q-77 0 -182 62l58 97q84 -46 124 -46q101 0 101 53q0 43 -84 43q-10 0 -92 -5v124q72 -6 86 -6q73 0 73 50q0 39 -78 39q-49 0 -120 -36l-50 100q95 49 170 49q82 0 134 -33q64 -39 64 -119q0 -58 -38 -95q55 -37 55 -111z" />
    <glyph glyph-name="uni0438" unicode="&#x438;" 
d="M724 8h-118v306l-197 -306h-109v506h118v-303l197 303h109v-506z" />
    <glyph glyph-name="uni0439" unicode="&#x439;" 
d="M678 680q-19 -134 -166 -134t-166 134h86q2 -71 80 -71t80 71h86zM724 8h-118v306l-197 -306h-109v506h118v-303l197 303h109v-506z" />
    <glyph glyph-name="uni043A" unicode="&#x43a;" 
d="M721 8h-125l-118 215l-48 -60v-155h-117v506h117v-174l137 174h140l-153 -197z" />
    <glyph glyph-name="uni043B" unicode="&#x43b;" 
d="M750 8h-119v395h-164v-277q0 -116 -193 -118v111q52 1 63 10q11 10 11 39v346h402v-506z" />
    <glyph glyph-name="uni043C" unicode="&#x43c;" 
d="M761 8h-119v217l-79 -226h-102l-79 228v-219h-119v506h136l113 -330l113 330h136v-506z" />
    <glyph glyph-name="uni043D" unicode="&#x43d;" 
d="M739 8h-117v216h-220v-216h-117v506h117v-178h220v178h117v-506z" />
    <glyph glyph-name="uni043E" unicode="&#x43e;" 
d="M762 255q0 -110 -70 -183t-180 -73t-180 73t-70 183q0 113 70 191q68 77 180 77t182 -79q68 -76 68 -189zM640 255q0 68 -30 109q-33 46 -98 46t-98 -46q-30 -41 -30 -109q0 -63 32 -101q35 -42 96 -42q62 0 96 41q32 38 32 102z" />
    <glyph glyph-name="uni043F" unicode="&#x43f;" 
d="M737 8h-117v395h-216v-395h-117v506h450v-506z" />
    <glyph glyph-name="uni0440" unicode="&#x440;" 
d="M745 258q0 -112 -57 -185q-62 -80 -172 -80q-74 0 -120 34v-171h-117v658h117v-29q47 38 117 38q111 0 173 -78q59 -72 59 -187zM625 258q0 151 -116 151q-57 0 -88 -56q-25 -45 -25 -108q0 -55 30 -95q32 -43 85 -43q114 0 114 151z" />
    <glyph glyph-name="uni0441" unicode="&#x441;" 
d="M716 61q-88 -62 -173 -62q-107 0 -170 81q-60 74 -60 184q0 109 65 182q66 77 174 77q61 0 149 -41l-48 -102q-63 30 -101 30q-59 0 -90 -44q-28 -39 -28 -102t24 -103q27 -49 85 -49q53 0 110 41z" />
    <glyph glyph-name="uni0442" unicode="&#x442;" 
d="M758 403h-187v-395h-118v395h-187v111h492v-111z" />
    <glyph glyph-name="uni0443" unicode="&#x443;" 
d="M750 514l-207 -533q-29 -74 -78 -100q-42 -24 -127 -25v114q56 1 72 9q14 8 43 78l-179 457h124l114 -304l117 304h121z" />
    <glyph glyph-name="uni0444" unicode="&#x444;" 
d="M853 252q0 -101 -49 -176q-56 -86 -153 -86q-41 0 -81 23v-156h-119v156q-40 -23 -79 -23q-97 0 -153 86q-48 75 -48 176q0 105 47 185q56 94 154 94q44 0 79 -21v169h119v-169q36 21 81 21q99 0 155 -94q47 -80 47 -185zM729 252q0 50 -15 99q-22 66 -63 66
q-48 0 -81 -58v-205q33 -49 78 -49q44 0 66 55q15 40 15 92zM451 154v205q-33 58 -79 58q-40 0 -62 -66q-15 -49 -15 -99q0 -53 14 -92q21 -55 66 -55q43 0 76 49z" />
    <glyph glyph-name="uni0445" unicode="&#x445;" 
d="M811 8h-145l-154 189l-154 -189h-145l226 279l-184 227h146l111 -137l111 137h146l-184 -227z" />
    <glyph glyph-name="uni0446" unicode="&#x446;" 
d="M738 -144h-117v144h-335v514h117v-400h188v400h118v-400h29v-258z" />
    <glyph glyph-name="uni0447" unicode="&#x447;" 
d="M738 8h-117v218q-96 -64 -162 -64q-80 0 -127 43q-46 43 -46 123v186h118v-182q0 -34 11 -46q10 -12 44 -12q65 0 162 89v151h117v-506z" />
    <glyph glyph-name="uni0448" unicode="&#x448;" 
d="M818 8h-612v506h120v-395h126v395h119v-395h127v395h120v-506z" />
    <glyph glyph-name="uni0449" unicode="&#x449;" 
d="M835 -144h-120v144h-526v514h120v-400h127v400h120v-400h128v400h120v-400h31v-258z" />
    <glyph glyph-name="uni044A" unicode="&#x44a;" 
d="M744 168q0 -78 -57 -121q-52 -39 -131 -39h-191v395h-85v111h202v-187h74q188 0 188 -159zM624 168q0 29 -20 40q-14 7 -48 7h-74v-96h74q68 0 68 49z" />
    <glyph glyph-name="uni044B" unicode="&#x44b;" 
d="M801 8h-120v505h120v-505zM608 168q0 -78 -58 -122q-52 -38 -132 -38h-195v506h120v-187h75q190 0 190 -159zM485 168q0 31 -19 41q-13 6 -48 6h-75v-96h75q67 0 67 49z" />
    <glyph glyph-name="uni044C" unicode="&#x44c;" 
d="M699 168q0 -76 -56 -121q-50 -39 -129 -39h-189v506h116v-187h73q185 0 185 -159zM581 168q0 31 -20 41q-12 6 -47 6h-73v-96h73q67 0 67 49z" />
    <glyph glyph-name="uni044D" unicode="&#x44d;" 
d="M712 265q0 -113 -67 -188q-68 -78 -179 -78q-77 0 -158 48l61 96q53 -31 97 -31q95 0 122 98h-174v112h174q-29 88 -124 88q-40 0 -97 -33l-61 95q85 51 158 51q110 0 179 -73q69 -74 69 -185z" />
    <glyph glyph-name="uni044E" unicode="&#x44e;" 
d="M839 258q0 -109 -49 -179q-57 -80 -162 -80q-93 0 -148 62q-49 55 -60 149h-115v-202h-120v506h120v-192h116q14 90 63 142q55 59 144 59q106 0 163 -84q48 -71 48 -181zM716 258q0 155 -88 155q-86 0 -86 -155q0 -146 86 -146q88 0 88 146z" />
    <glyph glyph-name="uni044F" unicode="&#x44f;" 
d="M746 8h-117v194h-61l-157 -194h-149l176 219q-86 44 -86 131q0 156 213 156h181v-506zM629 314v89h-64q-92 0 -92 -43q0 -46 92 -46h64z" />
    <glyph glyph-name="uni0451" unicode="&#x451;" 
d="M674 572h-110v104h110v-104zM463 572h-110v104h110v-104zM739 153q-91 -154 -226 -154q-109 0 -169 81q-54 73 -54 186q0 108 57 180q63 77 169 77q98 0 160 -71q58 -67 58 -168v-55h-323q15 -116 102 -116q70 0 122 94zM606 341q-26 69 -90 69q-66 0 -95 -69h185z" />
    <glyph glyph-name="emdash" unicode="&#x2014;" 
d="M1024 314h-1024v109h1024v-109z" />
    <glyph glyph-name="uni2016" unicode="&#x2016;" 
d="M690 -57h-109v850h109v-850zM441 -57h-109v850h109v-850z" />
    <glyph glyph-name="quoteleft" unicode="&#x2018;" 
d="M840 596h-144v122q0 88 95 160l39 -49q-54 -44 -64 -89h74v-144z" />
    <glyph glyph-name="quoteright" unicode="&#x2019;" 
d="M329 735q0 -88 -95 -160l-39 50q55 44 64 88h-75v144h145v-122z" />
    <glyph glyph-name="quotedblleft" unicode="&#x201c;" 
d="M943 596h-144v122q0 87 95 160l39 -49q-54 -44 -65 -89h75v-144zM737 596h-144v122q0 88 94 160l40 -49q-54 -44 -64 -89h74v-144z" />
    <glyph glyph-name="quotedblright" unicode="&#x201d;" 
d="M431 735q0 -88 -94 -160l-40 50q55 44 64 88h-74v144h144v-122zM225 735q0 -88 -94 -160l-40 50q55 44 65 88h-75v144h144v-122z" />
    <glyph glyph-name="ellipsis" unicode="&#x2026;" 
d="M922 299h-138v138h138v-138zM581 299h-138v138h138v-138zM240 299h-138v138h138v-138z" />
    <glyph glyph-name="perthousand" unicode="&#x2030;" 
d="M999 181q0 -82 -36 -129q-41 -53 -122 -53q-160 0 -160 182q0 83 36 132q42 55 124 55q81 0 123 -56q35 -49 35 -131zM343 574q0 -82 -37 -129q-41 -52 -122 -52q-159 0 -159 181q0 83 35 132q42 55 124 55q81 0 123 -56q36 -49 36 -131zM662 710l-574 -711l-56 58
l567 704zM653 181q0 -82 -37 -129q-41 -53 -121 -53q-160 0 -160 182q0 83 36 132q42 55 124 55q80 0 122 -56q36 -49 36 -131zM906 182q0 99 -65 99q-68 0 -68 -99q0 -93 68 -93q65 0 65 93zM250 575q0 99 -66 99q-67 0 -67 -99q0 -92 67 -92q66 0 66 92zM560 182
q0 99 -65 99q-68 0 -68 -99q0 -93 68 -93q65 0 65 93z" />
    <glyph glyph-name="minute" unicode="&#x2032;" 
d="M381 796l-179 -252l-71 42l145 274z" />
    <glyph glyph-name="second" unicode="&#x2033;" 
d="M470 796l-180 -252l-71 42l146 274zM293 796l-179 -252l-72 42l145 274z" />
    <glyph glyph-name="uni203B" unicode="&#x203b;" 
d="M578 622h-132v131h132v-131zM895 305h-131v131h131v-131zM926 10l-56 -56l-358 359l-358 -359l-56 56l359 358l-359 358l56 56l358 -359l358 359l56 -56l-359 -358zM260 305h-131v131h131v-131zM578 -13h-132v131h132v-131z" />
    <glyph glyph-name="Euro" unicode="&#x20ac;" 
d="M783 352l-38 -84h-380q29 -77 96 -119q67 -41 157 -41q134 0 264 152v-164q-119 -97 -264 -97q-138 0 -240 74q-103 73 -138 195h-117l39 84h63q-1 14 -1 28t1 27h-106l38 85h82q34 122 136 195q102 74 243 74q176 0 303 -135q-22 -49 -53 -111q-110 138 -250 138
q-88 0 -154 -43q-67 -44 -97 -118h466l-38 -85h-449q-1 -13 -1 -27t1 -28h437z" />
    <glyph glyph-name="Euro" unicode="&#xe76c;" 
d="M783 352l-38 -84h-380q29 -77 96 -119q67 -41 157 -41q134 0 264 152v-164q-119 -97 -264 -97q-138 0 -240 74q-103 73 -138 195h-117l39 84h63q-1 14 -1 28t1 27h-106l38 85h82q34 122 136 195q102 74 243 74q176 0 303 -135q-22 -49 -53 -111q-110 138 -250 138
q-88 0 -154 -43q-67 -44 -97 -118h466l-38 -85h-449q-1 -13 -1 -27t1 -28h437z" />
    <glyph glyph-name="uni2103" unicode="&#x2103;" 
d="M913 558l-114 -42q-50 127 -160 127q-91 0 -146 -92q-49 -79 -49 -183q0 -100 42 -171q50 -81 137 -81q63 0 103 38q36 33 68 110l110 -46q-45 -110 -107 -161q-70 -58 -174 -58q-144 0 -228 118q-73 104 -73 251q0 153 78 265q90 128 239 128q196 0 274 -203zM354 738
q0 -51 -36 -86q-35 -36 -86 -36q-50 0 -86 36q-35 35 -35 86q0 50 35 86q36 36 86 36q51 0 86 -36q36 -36 36 -86zM284 738q0 20 -16 36q-15 15 -36 15q-20 0 -35 -15q-16 -16 -16 -36q0 -21 16 -36q15 -16 35 -16q21 0 36 16q16 15 16 36z" />
    <glyph glyph-name="uni2116" unicode="&#x2116;" 
d="M973 365q0 -105 -51 -172q-58 -78 -164 -78q-107 0 -165 78q-51 67 -51 172q0 106 49 178q58 83 167 83q108 0 166 -84q49 -71 49 -177zM976 8h-446v87h446v-87zM488 8h-101l-239 516v-516h-100v745h102l237 -513v513h101v-745zM872 365q0 70 -25 113q-30 50 -89 50
q-60 0 -90 -50q-26 -43 -26 -113q0 -66 27 -107q30 -45 89 -45q58 0 88 45q26 40 26 107z" />
    <glyph glyph-name="uni2160" unicode="&#x2160;" 
d="M570 8h-116v745h116v-745z" />
    <glyph glyph-name="uni2161" unicode="&#x2161;" 
d="M734 8h-117v745h117v-745zM407 8h-117v745h117v-745z" />
    <glyph glyph-name="uni2162" unicode="&#x2162;" 
d="M820 8h-117v745h117v-745zM570 8h-116v745h116v-745zM321 8h-117v745h117v-745z" />
    <glyph glyph-name="uni2163" unicode="&#x2163;" 
d="M894 753l-248 -745h-110l-247 745h117l185 -582l185 582h118zM236 8h-117v745h117v-745z" />
    <glyph glyph-name="uni2164" unicode="&#x2164;" 
d="M856 753l-289 -745h-111l-288 745h128l216 -571l216 571h128z" />
    <glyph glyph-name="uni2165" unicode="&#x2165;" 
d="M893 8h-117v745h117v-745zM736 753l-248 -745h-110l-247 745h117l185 -582l185 582h118z" />
    <glyph glyph-name="uni2166" unicode="&#x2166;" 
d="M936 8h-109v745h109v-745zM758 8h-109v745h109v-745zM610 753l-208 -745h-108l-208 745h115l147 -528l148 528h114z" />
    <glyph glyph-name="uni2167" unicode="&#x2167;" 
d="M974 8h-110v745h110v-745zM816 8h-108v745h108v-745zM659 8h-109v745h109v-745zM528 753l-185 -745h-110l-185 745h114l127 -507l126 507h113z" />
    <glyph glyph-name="uni2168" unicode="&#x2168;" 
d="M884 8h-131l-175 292l-176 -292h-131l242 401l-206 344h128l143 -237l141 237h130l-206 -344zM251 8h-111v745h111v-745z" />
    <glyph glyph-name="uni2169" unicode="&#x2169;" 
d="M878 8h-148l-217 295l-218 -295h-149l292 396l-257 349h146l186 -251l184 251h147l-258 -349z" />
    <glyph glyph-name="uni216A" unicode="&#x216a;" 
d="M883 8h-111v745h111v-745zM755 8h-131l-175 292l-177 -292h-131l243 401l-207 344h129l143 -237l141 237h130l-206 -344z" />
    <glyph glyph-name="uni216B" unicode="&#x216b;" 
d="M942 8h-112v745h112v-745zM764 8h-111v745h111v-745zM627 8h-122l-150 284l-149 -284h-124l213 401l-181 344h120l121 -229l121 229h121l-180 -344z" />
    <glyph glyph-name="uni2170" unicode="&#x2170;" 
d="M571 652h-118v101h118v-101zM571 8h-118v515h118v-515z" />
    <glyph glyph-name="uni2171" unicode="&#x2171;" 
d="M713 652h-118v101h118v-101zM429 652h-118v101h118v-101zM713 8h-118v506h118v-506zM429 8h-118v506h118v-506z" />
    <glyph glyph-name="uni2172" unicode="&#x2172;" 
d="M793 652h-118v101h118v-101zM571 652h-117v101h117v-101zM793 8h-118v506h118v-506zM349 652h-118v101h118v-101zM571 8h-117v506h117v-506zM349 8h-118v506h118v-506z" />
    <glyph glyph-name="uni2173" unicode="&#x2173;" 
d="M285 652h-118v101h118v-101zM856 514l-189 -506h-106l-189 506h122l119 -354l120 354h123zM285 8h-118v506h118v-506z" />
    <glyph glyph-name="uni2174" unicode="&#x2174;" 
d="M776 514l-210 -506h-108l-210 506h126l138 -346l138 346h126z" />
    <glyph glyph-name="uni2175" unicode="&#x2175;" 
d="M849 652h-118v101h118v-101zM849 8h-118v506h118v-506zM655 514l-188 -506h-107l-188 506h121l121 -356l120 356h121z" />
    <glyph glyph-name="uni2176" unicode="&#x2176;" 
d="M919 630h-115v123h115v-123zM737 630h-115v123h115v-123zM919 8h-115v515h115v-515zM737 8h-115v515h115v-515zM583 523l-190 -515h-104l-189 515h121l120 -362l121 362h121z" />
    <glyph glyph-name="uni2177" unicode="&#x2177;" 
d="M957 633h-110v120h110v-120zM807 633h-111v120h111v-120zM657 633h-111v120h111v-120zM957 8h-110v514h110v-514zM807 8h-111v514h111v-514zM657 8h-111v514h111v-514zM516 522l-173 -514h-103l-173 514h113l112 -355l109 355h115z" />
    <glyph glyph-name="uni2178" unicode="&#x2178;" 
d="M272 630h-118v123h118v-123zM883 8h-140l-151 187l-151 -187h-139l221 274l-193 241h139l123 -154l124 154h139l-192 -241zM272 8h-118v515h118v-515z" />
    <glyph glyph-name="uni2179" unicode="&#x2179;" 
d="M803 8h-145l-147 180l-145 -180h-145l218 270l-191 236h144l119 -147l121 147h144l-192 -236z" />
    <glyph glyph-name="arrowleft" unicode="&#x2190;" 
d="M1002 330h-802l135 -121l-46 -46l-266 206l266 207l46 -46l-135 -121h802v-79z" />
    <glyph glyph-name="arrowup" unicode="&#x2191;" 
d="M718 591l-45 -46l-122 135v-802h-78v802l-122 -135l-45 46l206 266z" />
    <glyph glyph-name="arrowright" unicode="&#x2192;" 
d="M1002 369l-266 -206l-46 46l135 121h-802v79h802l-135 121l46 46z" />
    <glyph glyph-name="arrowdown" unicode="&#x2193;" 
d="M718 144l-206 -266l-206 266l45 46l122 -135v802h78v-802l122 135z" />
    <glyph glyph-name="element" unicode="&#x2208;" 
d="M889 73h-476q-277 0 -277 295t277 295h476v-110h-476q-148 0 -167 -129h643v-109h-644q18 -132 168 -132h476v-110z" />
    <glyph glyph-name="product" unicode="&#x220f;" 
d="M783 8h-117v635h-308v-635h-117v745h542v-745z" />
    <glyph glyph-name="summation" unicode="&#x2211;" 
d="M788 8h-552v106l270 272l-270 272v95h535v-113h-353l251 -253l-263 -267h382v-112z" />
    <glyph glyph-name="radical" unicode="&#x221a;" 
d="M874 797l-450 -897l-135 271l-81 -64l-57 86l182 143l96 -181l342 681z" />
    <glyph glyph-name="proportional" unicode="&#x221d;" 
d="M871 199q-67 -49 -149 -49q-107 0 -209 128q-102 -134 -214 -134q-102 0 -162 62q-60 63 -60 161t60 160q60 61 162 61q113 0 213 -127q102 128 210 128q82 0 149 -49l-59 -91q-41 37 -90 37q-62 0 -144 -116q82 -117 144 -117q49 0 90 36zM447 370q-80 115 -148 115
q-113 0 -113 -118q0 -120 113 -120q61 0 148 123z" />
    <glyph glyph-name="infinity" unicode="&#x221e;" 
d="M947 367q0 -98 -60 -161q-60 -61 -162 -61q-111 0 -211 133q-102 -133 -215 -133q-102 0 -162 61q-60 63 -60 161t60 161q60 61 162 61q114 0 215 -128q102 128 211 128q102 0 162 -61q60 -63 60 -161zM838 367q0 119 -113 119q-62 0 -145 -116q85 -122 145 -122
q113 0 113 119zM449 370q-82 116 -150 116q-113 0 -113 -119t113 -119q62 0 150 122z" />
    <glyph glyph-name="angle" unicode="&#x2220;" 
d="M920 668l-569 -568h516v-109h-777l753 754z" />
    <glyph glyph-name="uni2225" unicode="&#x2225;" 
d="M784 793l-222 -850h-111l222 850h111zM571 793l-222 -850h-109l222 850h109z" />
    <glyph glyph-name="logicaland" unicode="&#x2227;" 
d="M894 88l-93 -57l-289 465l-288 -465l-93 57l381 617z" />
    <glyph glyph-name="logicalor" unicode="&#x2228;" 
d="M894 648l-382 -617l-381 617l93 57l288 -465l289 465z" />
    <glyph glyph-name="intersection" unicode="&#x2229;" 
d="M807 -8h-110v476q0 93 -45 131q-45 39 -140 39q-94 0 -138 -38q-47 -41 -47 -132v-476h-110v476q0 277 295 277t295 -277v-476z" />
    <glyph glyph-name="union" unicode="&#x222a;" 
d="M807 269q0 -277 -295 -277t-295 277v476h110v-476q0 -91 47 -132q44 -38 138 -38q95 0 140 39t45 131v476h110v-476z" />
    <glyph glyph-name="integral" unicode="&#x222b;" 
d="M659 665l-98 -31q-20 82 -49 82q-33 0 -33 -47q0 -52 31 -145q9 -28 52 -142q84 -221 84 -316q0 -66 -35 -111q-38 -50 -99 -50q-105 0 -147 164l98 33q20 -83 49 -83q33 0 33 47q0 76 -84 295q-83 219 -83 308q0 69 33 113q36 48 101 48q105 0 147 -165z" />
    <glyph glyph-name="uni222E" unicode="&#x222e;" 
d="M734 369q0 -57 -27 -109q-29 -51 -76 -83q15 -61 15 -111q0 -66 -34 -111q-37 -50 -100 -50q-104 0 -147 163l97 34q21 -83 50 -83q33 0 33 47q0 31 -10 75q-19 -2 -22 -2q-92 0 -158 67q-65 68 -65 163q0 122 103 193q-15 58 -15 107q0 69 33 113q36 48 101 48
q104 0 147 -165l-97 -31q-21 82 -50 82q-33 0 -33 -47q0 -23 10 -73q19 2 24 2q93 0 157 -66q64 -67 64 -163zM624 369q0 44 -29 77q-29 32 -71 38q25 -64 71 -191q29 34 29 76zM502 252q-23 63 -73 195q-31 -33 -31 -78t30 -79q31 -34 74 -38z" />
    <glyph glyph-name="therefore" unicode="&#x2234;" 
d="M584 554h-144v145h144v-145zM854 37h-143v145h143v-145zM313 37h-143v145h143v-145z" />
    <glyph glyph-name="uni2235" unicode="&#x2235;" 
d="M854 554h-143v145h143v-145zM313 554h-143v145h143v-145zM584 37h-144v145h144v-145z" />
    <glyph glyph-name="uni2236" unicode="&#x2236;" 
d="M584 524h-144v144h144v-144zM584 94h-144v144h144v-144z" />
    <glyph glyph-name="uni2237" unicode="&#x2237;" 
d="M840 553h-144v145h144v-145zM328 553h-144v145h144v-145zM840 38h-144v145h144v-145zM328 38h-144v145h144v-145z" />
    <glyph glyph-name="uni223D" unicode="&#x223d;" 
d="M947 371q0 -98 -60 -161q-60 -61 -162 -61q-84 0 -171 79l64 84q59 -60 107 -60q113 0 113 119q0 116 -113 116q-53 0 -117 -74q-17 -21 -85 -120q-100 -147 -224 -147q-102 0 -162 60q-60 61 -60 159t60 161q60 61 162 61q84 0 171 -79l-64 -84q-59 60 -107 60
q-113 0 -113 -119q0 -116 113 -116q48 0 114 75q30 35 87 119q99 147 225 147q102 0 162 -60q60 -61 60 -159z" />
    <glyph glyph-name="approxequal" unicode="&#x2248;" 
d="M993 545q-56 -95 -108 -134q-64 -48 -159 -48q-73 0 -157 39q-68 36 -137 71q-77 39 -134 39q-59 0 -95 -27q-30 -24 -68 -89l-104 47q56 95 108 135q64 48 159 48q73 0 157 -39q67 -35 135 -71q78 -38 136 -38t94 27q31 24 69 88zM993 292q-56 -95 -108 -134
q-64 -48 -159 -48q-73 0 -157 39q-68 35 -137 71q-77 38 -134 38q-59 0 -95 -27q-30 -23 -68 -88l-104 47q56 95 108 135q64 48 159 48q73 0 157 -39q67 -36 135 -71q78 -39 136 -39t94 28q31 24 69 88z" />
    <glyph glyph-name="uni224C" unicode="&#x224c;" 
d="M947 520q0 -102 -60 -165q-60 -64 -162 -64q-84 0 -171 81l64 86q59 -60 107 -60q113 0 113 122q0 120 -113 120q-53 0 -117 -76q-14 -19 -85 -124q-103 -155 -224 -155q-102 0 -162 64q-60 63 -60 164q0 102 60 164q60 64 162 64q84 0 171 -81l-64 -86q-60 61 -107 61
q-113 0 -113 -122q0 -121 113 -121q48 0 114 78q27 33 87 123q101 154 225 154q102 0 162 -64q60 -62 60 -163zM947 144h-870v97h870v-97zM947 -11h-870v97h870v-97z" />
    <glyph glyph-name="notequal" unicode="&#x2260;" 
d="M866 214h-347l-69 -213l-103 33l59 180h-248v108h282l38 117h-320v107h355l61 189l103 -34l-50 -155h239v-107h-274l-38 -117h312v-108z" />
    <glyph glyph-name="equivalence" unicode="&#x2261;" 
d="M866 539h-708v108h708v-108zM866 315h-708v107h708v-107zM866 90h-708v108h708v-108z" />
    <glyph glyph-name="lessequal" unicode="&#x2264;" 
d="M884 145l-58 -94l-619 385l619 383l58 -95l-467 -288zM810 12l-57 -95l-614 383l62 94z" />
    <glyph glyph-name="greaterequal" unicode="&#x2265;" 
d="M817 436l-619 -385l-58 94l467 291l-467 288l58 95zM885 300l-614 -383l-57 95l609 382z" />
    <glyph glyph-name="uni226E" unicode="&#x226e;" 
d="M845 80l-58 -95l-106 67v-92h-102v156l-408 253l408 253v154h102v-91l106 67l58 -95l-164 -101v-374zM579 245v248l-199 -124z" />
    <glyph glyph-name="uni226F" unicode="&#x226f;" 
d="M849 369l-408 -253v-156h-102v92l-107 -67l-57 95l164 102v374l-164 101l57 95l107 -67v91h102v-154zM640 369l-199 124v-248z" />
    <glyph glyph-name="uni2299" unicode="&#x2299;" 
d="M931 368q0 -175 -122 -297t-297 -122q-174 0 -297 122q-122 123 -122 297q0 175 122 297t297 122t297 -122t122 -297zM824 368q0 130 -91 221t-221 91t-221 -91t-91 -221t91 -221t221 -91t221 91t91 221zM607 367q0 -40 -28 -68q-29 -27 -68 -27t-67 28q-27 29 -27 68
q0 41 28 68q29 27 69 27q39 0 66 -29t27 -67z" />
    <glyph glyph-name="perpendicular" unicode="&#x22a5;" 
d="M866 -5h-708v109h297v637h114v-637h297v-109z" />
    <glyph glyph-name="uni2312" unicode="&#x2312;" 
d="M931 158h-107q0 140 -90 228q-90 90 -222 90t-222 -90q-90 -88 -90 -228h-107q0 182 122 302q120 117 297 117t297 -117q122 -120 122 -302z" />
    <glyph glyph-name="uni2460" unicode="&#x2460;" 
d="M1009 366q0 -207 -145 -352t-352 -145t-352 145t-145 352t145 352t352 145t352 -145t145 -352zM943 366q0 180 -126 305q-125 126 -305 126q-179 0 -305 -126t-126 -305q0 -178 126 -305q127 -126 305 -126q179 0 305 126t126 305zM573 19h-111v513h-111v82q111 0 142 90
h80v-685z" />
    <glyph glyph-name="uni2461" unicode="&#x2461;" 
d="M1009 366q0 -207 -145 -352t-352 -145t-352 145t-145 352t145 352t352 145t352 -145t145 -352zM943 366q0 180 -126 305q-125 126 -305 126q-179 0 -305 -126t-126 -305q0 -178 126 -305q127 -126 305 -126q179 0 305 126t126 305zM724 528q0 -73 -48 -142
q-26 -36 -97 -105q-97 -92 -129 -153h273v-109h-424q24 109 80 193q40 61 127 144q53 51 71 75q34 48 34 97q0 73 -100 73q-96 0 -104 -157l-106 41q10 104 61 163q55 63 149 63q90 0 147 -42q66 -49 66 -141z" />
    <glyph glyph-name="uni2462" unicode="&#x2462;" 
d="M1009 366q0 -207 -145 -352t-352 -145t-352 145t-145 352t145 352t352 145t352 -145t145 -352zM943 366q0 180 -126 305q-125 126 -305 126q-179 0 -305 -126t-126 -305q0 -178 126 -305q127 -126 305 -126q179 0 305 126t126 305zM725 210q0 -91 -67 -147
q-60 -51 -149 -51q-171 0 -211 182l104 34q24 -104 107 -104q101 0 101 86q0 103 -93 103h-90v109h79q35 0 59 30q25 31 25 70q0 76 -76 76q-70 0 -88 -99l-105 33q16 85 66 132t127 47q86 0 138 -50q53 -51 53 -139q0 -89 -68 -143q88 -51 88 -169z" />
    <glyph glyph-name="uni2463" unicode="&#x2463;" 
d="M1009 366q0 -207 -145 -352t-352 -145t-352 145t-145 352t145 352t352 145t352 -145t145 -352zM943 366q0 180 -126 305q-125 126 -305 126q-179 0 -305 -126t-126 -305q0 -178 126 -305q127 -126 305 -126q179 0 305 126t126 305zM714 167h-77v-148h-115v148h-261v101
l276 436h100v-426h77v-111zM522 278v209l-128 -209h128z" />
    <glyph glyph-name="uni2464" unicode="&#x2464;" 
d="M1009 366q0 -207 -145 -352t-352 -145t-352 145t-145 352t145 352t352 145t352 -145t145 -352zM943 366q0 180 -126 305q-125 126 -305 126q-179 0 -305 -126t-126 -305q0 -178 126 -305q127 -126 305 -126q179 0 305 126t126 305zM723 265q0 -107 -55 -177
q-60 -76 -163 -76q-146 0 -206 163l99 45q38 -96 107 -96q103 0 103 141q0 64 -14 92q-20 36 -70 36q-37 0 -57 -16q-22 -15 -42 -55h-98v382h370v-110h-257v-116q40 26 84 26q101 0 153 -73q46 -63 46 -166z" />
    <glyph glyph-name="uni2465" unicode="&#x2465;" 
d="M1009 366q0 -207 -145 -352t-352 -145t-352 145t-145 352t145 352t352 145t352 -145t145 -352zM943 366q0 180 -126 305q-125 126 -305 126q-179 0 -305 -126t-126 -305q0 -178 126 -305q127 -126 305 -126q179 0 305 126t126 305zM742 242q0 -98 -64 -165
q-65 -65 -161 -65q-233 0 -233 338q0 361 233 361q146 0 207 -159l-104 -42q-22 51 -41 69q-23 19 -62 19q-96 0 -116 -172q57 38 120 38q99 0 160 -61t61 -161zM627 242q0 109 -106 109q-83 0 -123 -53q11 -174 119 -174q110 0 110 118z" />
    <glyph glyph-name="uni2466" unicode="&#x2466;" 
d="M1009 366q0 -207 -145 -352t-352 -145t-352 145t-145 352t145 352t352 145t352 -145t145 -352zM943 366q0 180 -126 305q-125 126 -305 126q-179 0 -305 -126t-126 -305q0 -178 126 -305q127 -126 305 -126q179 0 305 126t126 305zM735 610q-125 -127 -165 -266
q-30 -106 -30 -325h-119q0 184 29 304q35 150 129 271h-288v110h444v-94z" />
    <glyph glyph-name="uni2467" unicode="&#x2467;" 
d="M1009 366q0 -207 -145 -352t-352 -145t-352 145t-145 352t145 352t352 145t352 -145t145 -352zM943 366q0 180 -126 305q-125 126 -305 126q-179 0 -305 -126t-126 -305q0 -178 126 -305q127 -126 305 -126q179 0 305 126t126 305zM733 216q0 -100 -62 -154
q-58 -50 -156 -50q-97 0 -157 50q-65 55 -65 154q0 111 91 176q-70 53 -70 139q0 89 59 137q53 43 140 43q88 0 140 -43q59 -47 59 -137q0 -86 -70 -139q91 -65 91 -176zM595 524q0 76 -82 76t-82 -76q0 -36 24 -59q23 -22 59 -22q37 0 59 21q22 23 22 60zM618 220
q0 117 -106 117q-50 0 -78 -31q-26 -32 -26 -86q0 -98 107 -98q103 0 103 98z" />
    <glyph glyph-name="uni2468" unicode="&#x2468;" 
d="M1009 366q0 -207 -145 -352t-352 -145t-352 145t-145 352t145 352t352 145t352 -145t145 -352zM943 366q0 180 -126 305q-125 126 -305 126q-179 0 -305 -126t-126 -305q0 -178 126 -305q127 -126 305 -126q179 0 305 126t126 305zM720 352q0 -340 -223 -340
q-123 0 -179 145l98 46q36 -81 81 -81q89 0 106 153q-47 -34 -100 -34q-94 0 -148 64q-49 59 -49 156q0 101 49 170q56 80 153 80q131 0 181 -128q31 -81 31 -231zM606 412q-6 190 -98 190q-44 0 -68 -46q-19 -37 -19 -95q0 -109 88 -109q54 0 97 60z" />
    <glyph glyph-name="uni2469" unicode="&#x2469;" 
d="M1009 366q0 -207 -145 -352t-352 -145t-352 145t-145 352t145 352t352 145t352 -145t145 -352zM943 366q0 180 -126 305q-125 126 -305 126q-179 0 -305 -126t-126 -305q0 -178 126 -305q127 -126 305 -126q179 0 305 126t126 305zM833 364q0 -352 -184 -352
q-183 0 -183 352q0 140 24 216q42 131 159 131t159 -131q25 -76 25 -216zM382 19h-106v515h-94v80q41 0 74 24q32 25 46 66h80v-685zM721 364q0 97 -7 140q-16 97 -65 97t-64 -100q-7 -44 -7 -137q0 -243 71 -243q72 0 72 243z" />
    <glyph glyph-name="uni2474" unicode="&#x2474;" 
d="M1009 370q0 -277 -201 -491l-47 44q75 84 121 208q46 125 46 239q0 115 -45 238q-46 124 -122 209l47 44q201 -214 201 -491zM572 19h-115v509h-107v86q106 0 136 90h86v-685zM263 -77l-47 -44q-201 214 -201 491t201 491l47 -44q-76 -85 -122 -209q-45 -123 -45 -238
q0 -114 46 -239q46 -124 121 -208z" />
    <glyph glyph-name="uni2475" unicode="&#x2475;" 
d="M1009 370q0 -277 -201 -491l-47 44q75 84 121 208q46 125 46 239q0 115 -45 238q-46 124 -122 209l47 44q201 -214 201 -491zM724 528q0 -71 -46 -137q-28 -41 -99 -110q-97 -93 -129 -153h273v-109h-423q23 110 79 193q39 59 127 144q52 50 71 75q34 49 34 97
q0 73 -100 73q-96 0 -104 -157l-106 41q10 103 61 163q56 63 149 63q89 0 146 -43q67 -48 67 -140zM263 -77l-47 -44q-201 214 -201 491t201 491l47 -44q-76 -85 -122 -209q-45 -123 -45 -238q0 -114 46 -239q46 -124 121 -208z" />
    <glyph glyph-name="uni2476" unicode="&#x2476;" 
d="M1009 370q0 -277 -201 -491l-47 44q75 84 121 208q46 125 46 239q0 115 -45 238q-46 124 -122 209l47 44q201 -214 201 -491zM725 210q0 -91 -67 -146q-61 -52 -149 -52q-171 0 -210 182l103 34q24 -104 107 -104q101 0 101 86q0 103 -93 103h-90v109h79q35 0 59 30
q25 31 25 70q0 76 -76 76q-70 0 -88 -99l-105 33q35 179 193 179q86 0 138 -50q53 -51 53 -139q0 -89 -68 -143q88 -51 88 -169zM263 -77l-47 -44q-201 214 -201 491t201 491l47 -44q-76 -85 -122 -209q-45 -123 -45 -238q0 -114 46 -239q46 -124 121 -208z" />
    <glyph glyph-name="uni2477" unicode="&#x2477;" 
d="M1009 370q0 -277 -201 -491l-47 44q75 84 121 208q46 125 46 239q0 115 -45 238q-46 124 -122 209l47 44q201 -214 201 -491zM714 167h-77v-148h-115v148h-261v101l276 436h100v-426h77v-111zM263 -77l-47 -44q-201 214 -201 491t201 491l47 -44q-76 -85 -122 -209
q-45 -123 -45 -238q0 -114 46 -239q46 -124 121 -208zM522 278v209l-128 -209h128z" />
    <glyph glyph-name="uni2478" unicode="&#x2478;" 
d="M1009 370q0 -277 -201 -491l-47 44q75 84 121 208q46 125 46 239q0 115 -45 238q-46 124 -122 209l47 44q201 -214 201 -491zM723 265q0 -107 -55 -177q-60 -76 -163 -76q-146 0 -206 163l99 45q38 -96 107 -96q103 0 103 141q0 64 -15 92q-19 36 -69 36q-37 0 -58 -16
q-22 -15 -41 -55h-98v382h370v-110h-257v-116q40 26 84 26q99 0 152 -74q47 -64 47 -165zM263 -77l-47 -44q-201 214 -201 491t201 491l47 -44q-76 -85 -122 -209q-45 -123 -45 -238q0 -114 46 -239q46 -124 121 -208z" />
    <glyph glyph-name="uni2479" unicode="&#x2479;" 
d="M1009 370q0 -277 -201 -491l-47 44q75 84 121 208q46 125 46 239q0 115 -45 238q-46 124 -122 209l47 44q201 -214 201 -491zM742 242q0 -98 -64 -165q-65 -65 -161 -65q-233 0 -233 338q0 361 233 361q143 0 207 -159l-104 -42q-23 52 -41 69q-22 19 -62 19
q-96 0 -116 -172q57 38 120 38q97 0 159 -61q62 -62 62 -161zM263 -77l-47 -44q-201 214 -201 491t201 491l47 -44q-76 -85 -122 -209q-45 -123 -45 -238q0 -114 46 -239q46 -124 121 -208zM627 242q0 109 -106 109q-83 0 -123 -53q9 -174 119 -174t110 118z" />
    <glyph glyph-name="uni247A" unicode="&#x247a;" 
d="M1009 370q0 -277 -201 -491l-47 44q75 84 121 208q46 125 46 239q0 115 -45 238q-46 124 -122 209l47 44q201 -214 201 -491zM734 610q-125 -126 -165 -267q-30 -106 -30 -324h-119q0 185 31 309q35 149 127 266h-287v110h443v-94zM263 -77l-47 -44q-201 214 -201 491
t201 491l47 -44q-76 -85 -122 -209q-45 -123 -45 -238q0 -114 46 -239q46 -124 121 -208z" />
    <glyph glyph-name="uni247B" unicode="&#x247b;" 
d="M1009 370q0 -277 -201 -491l-47 44q75 84 121 208q46 125 46 239q0 115 -45 238q-46 124 -122 209l47 44q201 -214 201 -491zM732 216q0 -100 -61 -154q-58 -50 -156 -50t-158 50q-65 54 -65 154q0 111 92 176q-70 53 -70 139q0 89 58 137q53 43 140 43t140 -43
q59 -48 59 -137q0 -86 -70 -139q91 -65 91 -176zM263 -77l-47 -44q-201 214 -201 491t201 491l47 -44q-76 -85 -122 -209q-45 -123 -45 -238q0 -114 46 -239q46 -124 121 -208zM595 524q0 76 -83 76q-82 0 -82 -76q0 -37 24 -60q23 -21 60 -21t59 21q22 23 22 60zM617 220
q0 117 -106 117q-103 0 -103 -117q0 -98 107 -98q102 0 102 98z" />
    <glyph glyph-name="uni247C" unicode="&#x247c;" 
d="M1009 370q0 -277 -201 -491l-47 44q75 84 121 208q46 125 46 239q0 115 -45 238q-46 124 -122 209l47 44q201 -214 201 -491zM719 352q0 -340 -223 -340q-122 0 -178 144l97 47q35 -81 81 -81q89 0 106 153q-47 -34 -100 -34q-94 0 -148 64q-49 59 -49 156q0 102 48 171
q56 79 154 79q131 0 181 -128q31 -81 31 -231zM263 -77l-47 -44q-201 214 -201 491t201 491l47 -44q-76 -85 -122 -209q-45 -123 -45 -238q0 -114 46 -239q46 -124 121 -208zM605 412q-6 190 -98 190q-44 0 -67 -46q-19 -37 -19 -95q0 -109 87 -109q54 0 97 60z" />
    <glyph glyph-name="uni247D" unicode="&#x247d;" 
d="M1009 370q0 -277 -201 -491l-47 44q75 84 121 208q46 125 46 239q0 115 -45 238q-46 124 -122 209l47 44q201 -214 201 -491zM833 364q0 -352 -185 -352q-118 0 -160 133q-24 76 -24 219q0 141 24 217q42 130 160 130q185 0 185 -347zM394 19h-105v517h-96v78q40 0 73 24
q34 26 47 66h81v-685zM263 -77l-47 -44q-201 214 -201 491t201 491l47 -44q-76 -85 -122 -209q-45 -123 -45 -238q0 -114 46 -239q46 -124 121 -208zM722 364q0 238 -74 238q-51 0 -67 -100q-7 -42 -7 -138q0 -244 74 -244t74 244z" />
    <glyph glyph-name="uni247E" unicode="&#x247e;" 
d="M1009 370q0 -277 -201 -491l-47 44q75 84 121 208q46 125 46 239q0 115 -45 238q-46 124 -122 209l47 44q201 -214 201 -491zM743 19h-106v517h-96v78q41 0 73 24q34 26 48 66h81v-685zM428 19h-106v517h-97v78q41 0 74 24q34 26 47 66h82v-685zM263 -77l-47 -44
q-201 214 -201 491t201 491l47 -44q-76 -85 -122 -209q-45 -123 -45 -238q0 -114 46 -239q46 -124 121 -208z" />
    <glyph glyph-name="uni247F" unicode="&#x247f;" 
d="M1009 370q0 -277 -201 -491l-47 44q75 84 121 208q46 125 46 239q0 115 -45 238q-46 124 -122 209l47 44q201 -214 201 -491zM823 529q0 -69 -32 -133q-22 -42 -77 -113q-78 -100 -102 -159h172v-105h-304q18 108 60 190q29 59 96 144q40 51 55 81q25 46 25 95
q0 77 -75 77q-72 0 -78 -158l-102 39q7 98 57 162q49 62 123 62q71 0 122 -43q60 -50 60 -139zM384 19h-105v517h-97v78q41 0 74 24q34 26 47 66h81v-685zM263 -77l-47 -44q-201 214 -201 491t201 491l47 -44q-76 -85 -122 -209q-45 -123 -45 -238q0 -114 46 -239
q46 -124 121 -208z" />
    <glyph glyph-name="uni2480" unicode="&#x2480;" 
d="M1009 370q0 -277 -201 -491l-47 44q75 84 121 208q46 125 46 239q0 115 -45 238q-46 124 -122 209l47 44q201 -214 201 -491zM833 208q0 -88 -63 -144q-56 -52 -132 -52q-153 0 -184 177l92 31q19 -104 92 -104q88 0 88 92q0 109 -82 109h-74v101h64q31 0 53 32
q23 32 23 74q0 83 -68 83q-61 0 -77 -100l-93 31q13 81 58 127q47 46 112 46q74 0 123 -49q51 -52 51 -138q0 -90 -62 -145q79 -50 79 -171zM384 19h-105v517h-97v78q41 0 74 24q34 26 47 66h81v-685zM263 -77l-47 -44q-201 214 -201 491t201 491l47 -44q-76 -85 -122 -209
q-45 -123 -45 -238q0 -114 46 -239q46 -124 121 -208z" />
    <glyph glyph-name="uni2481" unicode="&#x2481;" 
d="M1009 370q0 -277 -201 -491l-47 44q75 84 121 208q46 125 46 239q0 115 -45 238q-46 124 -122 209l47 44q201 -214 201 -491zM842 170h-67v-151h-100v151h-228v94l238 440h90v-432h67v-102zM384 19h-105v517h-97v78q41 0 74 24q34 26 47 66h81v-685zM263 -77l-47 -44
q-201 214 -201 491t201 491l47 -44q-76 -85 -122 -209q-45 -123 -45 -238q0 -114 46 -239q46 -124 121 -208zM675 272v210l-111 -210h111z" />
    <glyph glyph-name="uni2482" unicode="&#x2482;" 
d="M1009 370q0 -277 -201 -491l-47 44q75 84 121 208q46 125 46 239q0 115 -45 238q-46 124 -122 209l47 44q201 -214 201 -491zM839 264q0 -114 -48 -182q-50 -70 -139 -70q-63 0 -113 40q-55 43 -79 121l93 42q32 -95 87 -95q86 0 86 144q0 58 -8 85q-16 47 -61 47
q-30 0 -49 -16q-18 -14 -34 -55h-85v379h312v-106h-208v-121q33 25 70 25q176 0 176 -238zM384 19h-105v517h-97v78q41 0 74 24q34 26 47 66h81v-685zM263 -77l-47 -44q-201 214 -201 491t201 491l47 -44q-76 -85 -122 -209q-45 -123 -45 -238q0 -114 46 -239
q46 -124 121 -208z" />
    <glyph glyph-name="uni2483" unicode="&#x2483;" 
d="M1009 370q0 -277 -201 -491l-47 44q75 84 121 208q46 125 46 239q0 115 -45 238q-46 124 -122 209l47 44q201 -214 201 -491zM836 241q0 -107 -56 -171q-52 -58 -135 -58q-190 0 -190 338q0 361 193 361q62 0 111 -38q52 -41 77 -118l-105 -41q-18 52 -35 70
q-16 18 -48 18q-62 0 -76 -171q40 31 82 31q82 0 132 -58q50 -59 50 -163zM384 19h-105v517h-97v78q41 0 74 24q34 26 47 66h81v-685zM263 -77l-47 -44q-201 214 -201 491t201 491l47 -44q-76 -85 -122 -209q-45 -123 -45 -238q0 -114 46 -239q46 -124 121 -208zM721 241
q0 62 -14 88q-15 25 -55 25q-50 0 -81 -55q11 -179 74 -179q76 0 76 121z" />
    <glyph glyph-name="uni2484" unicode="&#x2484;" 
d="M1009 370q0 -277 -201 -491l-47 44q75 84 121 208q46 125 46 239q0 115 -45 238q-46 124 -122 209l47 44q201 -214 201 -491zM783 613q-85 -111 -114 -259q-24 -117 -24 -335h-105q0 194 19 310q25 153 93 269h-216v106h347v-91zM384 19h-105v517h-97v78q41 0 74 24
q34 26 47 66h81v-685zM263 -77l-47 -44q-201 214 -201 491t201 491l47 -44q-76 -85 -122 -209q-45 -123 -45 -238q0 -114 46 -239q46 -124 121 -208z" />
    <glyph glyph-name="uni2485" unicode="&#x2485;" 
d="M1009 370q0 -277 -201 -491l-47 44q75 84 121 208q46 125 46 239q0 115 -45 238q-46 124 -122 209l47 44q201 -214 201 -491zM837 215q0 -98 -57 -153q-52 -50 -137 -50t-139 50q-60 55 -60 153q0 111 81 177q-61 53 -61 140q0 88 53 136q47 43 123 43q75 0 124 -43
q54 -49 54 -136t-61 -140q80 -66 80 -177zM384 19h-105v517h-97v78q41 0 74 24q34 26 47 66h81v-685zM263 -77l-47 -44q-201 214 -201 491t201 491l47 -44q-76 -85 -122 -209q-45 -123 -45 -238q0 -114 46 -239q46 -124 121 -208zM707 525q0 80 -67 80q-65 0 -65 -80
q0 -84 67 -84q65 0 65 84zM725 218q0 121 -85 121q-83 0 -83 -121q0 -100 86 -100q82 0 82 100z" />
    <glyph glyph-name="uni2486" unicode="&#x2486;" 
d="M1009 370q0 -277 -201 -491l-47 44q75 84 121 208q46 125 46 239q0 115 -45 238q-46 124 -122 209l47 44q201 -214 201 -491zM824 352q0 -340 -194 -340q-113 0 -159 142l91 45q30 -81 68 -81q47 0 66 54q11 30 16 94q-32 -23 -76 -23q-82 0 -128 64q-43 59 -43 154
q0 101 42 170q49 80 133 80q184 0 184 -359zM384 19h-105v517h-97v78q41 0 74 24q34 26 47 66h81v-685zM263 -77l-47 -44q-201 214 -201 491t201 491l47 -44q-76 -85 -122 -209q-45 -123 -45 -238q0 -114 46 -239q46 -124 121 -208zM714 412q-5 196 -74 196q-65 0 -65 -147
q0 -61 15 -87q15 -24 50 -24q37 0 74 62z" />
    <glyph glyph-name="uni2487" unicode="&#x2487;" 
d="M1009 370q0 -277 -201 -491l-47 44q75 84 121 208q46 125 46 239q0 115 -45 238q-46 124 -122 209l47 44q201 -214 201 -491zM856 361q0 -349 -168 -349q-100 0 -142 132q-28 87 -28 219t28 218q42 130 142 130q168 0 168 -350zM504 529q0 -100 -104 -245
q-73 -104 -98 -163h175v-102h-282q30 -54 68 -96l-47 -44q-201 214 -201 491t201 491l47 -44q-76 -85 -122 -209q-45 -123 -45 -238q0 -163 83 -324q5 73 53 161q21 36 94 143q72 107 72 179q0 79 -62 79q-73 0 -79 -159l-93 38q7 97 55 161q48 63 117 63q64 0 111 -43
q57 -50 57 -139zM749 363q0 134 -14 188q-14 55 -47 55t-47 -56q-14 -55 -14 -189t14 -190q14 -54 47 -54t47 56t14 190z" />
    <glyph glyph-name="uni2488" unicode="&#x2488;" 
d="M936 8h-121v120h121v-120zM464 8h-117v561h-125v86q122 0 155 98h87v-745z" />
    <glyph glyph-name="uni2489" unicode="&#x2489;" 
d="M936 8h-121v120h121v-120zM631 563q0 -76 -53 -153q-33 -49 -106 -118q-114 -108 -146 -171h304v-113h-461q27 116 86 206q46 71 136 156q59 55 81 87q38 53 38 106q0 81 -111 81q-106 0 -115 -171l-113 43q11 112 67 177q60 68 161 68q98 0 160 -46q72 -53 72 -152z" />
    <glyph glyph-name="uni248A" unicode="&#x248a;" 
d="M936 8h-121v120h121v-120zM642 216q0 -98 -72 -159q-66 -58 -162 -58q-186 0 -229 197l111 37q24 -122 118 -122q51 0 81 28q32 28 32 77q0 53 -28 86q-29 33 -77 33h-98v107h85q35 0 66 38q30 38 30 76q0 88 -86 88q-80 0 -100 -110l-110 34q17 92 71 142q56 51 139 51
q93 0 150 -54t57 -151q0 -98 -75 -155q97 -59 97 -185z" />
    <glyph glyph-name="uni248B" unicode="&#x248b;" 
d="M936 8h-121v120h121v-120zM654 173h-88v-164h-119v164h-284v105l300 475h103v-465h88v-115zM447 288v232l-144 -232h144z" />
    <glyph glyph-name="uni248C" unicode="&#x248c;" 
d="M936 8h-121v120h121v-120zM654 275q0 -115 -60 -192q-66 -84 -177 -84q-159 0 -223 178l104 45q41 -106 119 -106q117 0 117 159q0 144 -96 144q-41 0 -64 -17q-24 -18 -45 -63h-106v414h404v-114h-285v-128q41 26 96 26q108 0 165 -81q51 -71 51 -181z" />
    <glyph glyph-name="uni248D" unicode="&#x248d;" 
d="M936 8h-121v120h121v-120zM702 255q0 -106 -69 -181q-71 -75 -176 -75q-142 0 -205 124q-47 92 -47 245q0 393 252 393q157 0 224 -171l-110 -43q-23 58 -46 77q-22 20 -68 20q-106 0 -127 -192q61 43 133 43q108 0 174 -65q65 -64 65 -175zM581 255q0 123 -118 123
q-37 0 -76 -17q-39 -18 -59 -45q12 -200 129 -200q57 0 90 39q34 40 34 100z" />
    <glyph glyph-name="uni248E" unicode="&#x248e;" 
d="M936 8h-121v120h121v-120zM707 652q-142 -143 -187 -290q-35 -117 -35 -354h-125q0 215 34 342q41 155 154 289h-353v114h512v-101z" />
    <glyph glyph-name="uni248F" unicode="&#x248f;" 
d="M936 8h-121v120h121v-120zM674 223q0 -110 -68 -168q-62 -56 -170 -56q-106 0 -171 56q-70 59 -70 168q0 121 100 191q-77 57 -77 151q0 96 64 149q58 47 152 47t153 -47q63 -53 63 -149q0 -94 -77 -151q101 -70 101 -191zM528 558q0 85 -94 85t-94 -85q0 -39 27 -64
t68 -25t67 25t26 64zM553 227q0 128 -120 128q-117 0 -117 -128q0 -111 120 -111q117 0 117 111z" />
    <glyph glyph-name="uni2490" unicode="&#x2490;" 
d="M936 8h-121v120h121v-120zM646 371q0 -372 -244 -372q-132 0 -192 158l105 51q37 -92 87 -92q102 0 119 172q-52 -38 -111 -38q-103 0 -160 70q-54 64 -54 170q0 110 53 185q60 86 167 86q142 0 196 -139q34 -88 34 -251zM525 436q-6 208 -109 208q-49 0 -76 -50
q-24 -43 -24 -104q0 -122 101 -122q60 0 108 68z" />
    <glyph glyph-name="uni2491" unicode="&#x2491;" 
d="M811 380q0 -153 -32 -237q-52 -144 -196 -144q-145 0 -197 144q-31 83 -31 237q0 155 31 239q52 142 197 142q144 0 197 -142q31 -84 31 -239zM936 8h-121v120h121v-120zM294 8h-116v564h-106v82q95 6 127 99h95v-745zM684 380q0 50 -1 71q-10 199 -100 199
q-101 0 -101 -270q0 -269 101 -269t101 269z" />
    <glyph glyph-name="uni2492" unicode="&#x2492;" 
d="M701 8h-115v564h-107v82q95 6 127 99h95v-745zM936 8h-121v120h121v-120zM348 8h-116v564h-106v82q95 6 127 99h95v-745z" />
    <glyph glyph-name="uni2493" unicode="&#x2493;" 
d="M774 568q0 -79 -43 -151q-24 -40 -99 -124q-90 -101 -120 -177h255v-108h-394q22 112 65 196q40 77 114 157q106 117 106 207q0 82 -89 82q-83 0 -94 -155l-103 30q9 101 54 164q53 72 143 72q89 0 146 -49q59 -53 59 -144zM936 8h-121v120h121v-120zM276 8h-115v564
h-107v82q96 6 127 99h95v-745z" />
    <glyph glyph-name="uni2494" unicode="&#x2494;" 
d="M799 214q0 -100 -64 -157q-64 -58 -162 -58q-163 0 -206 182l92 36q17 -59 42 -82q25 -27 72 -27q110 0 110 106q0 119 -109 119h-76v110h57q40 0 72 38t32 81q0 89 -81 89q-66 0 -86 -112l-103 45q14 80 65 128q50 49 124 49q90 0 143 -53q52 -54 52 -146
q0 -106 -79 -161q50 -25 78 -78q27 -49 27 -109zM936 8h-121v120h121v-120zM276 8h-115v564h-107v82q96 6 127 99h95v-745z" />
    <glyph glyph-name="uni2495" unicode="&#x2495;" 
d="M810 185h-83v-176h-114v176h-276v88l286 480h104v-460h83v-108zM936 8h-121v120h121v-120zM276 8h-115v564h-107v82q96 6 127 99h95v-745zM613 293v240l-145 -240h145z" />
    <glyph glyph-name="uni2496" unicode="&#x2496;" 
d="M800 269q0 -118 -57 -190q-60 -80 -174 -80q-135 0 -198 163l98 47q39 -98 100 -98q115 0 115 158q0 149 -93 149q-77 0 -112 -67h-83v402h364v-109h-250v-135q35 21 81 21q102 0 160 -83q49 -73 49 -178zM936 8h-121v120h121v-120zM276 8h-115v564h-107v82q96 6 127 99
h95v-745z" />
    <glyph glyph-name="uni2497" unicode="&#x2497;" 
d="M796 254q0 -114 -51 -181q-56 -74 -167 -74q-134 0 -183 131q-31 83 -31 238q0 393 214 393q149 0 194 -147l-100 -51q-18 48 -37 67q-21 20 -57 20q-88 0 -98 -199q51 37 114 37q98 0 152 -70q50 -63 50 -164zM936 8h-121v120h121v-120zM276 8h-115v564h-107v82
q96 6 127 99h95v-745zM680 254q0 55 -23 86q-25 36 -72 36q-61 0 -106 -47q3 -89 16 -134q23 -84 83 -84q102 0 102 143z" />
    <glyph glyph-name="uni2498" unicode="&#x2498;" 
d="M812 651q-93 -112 -132 -207q-39 -99 -45 -239q-2 -49 -2 -197h-114q0 244 15 328q26 162 132 308h-272v109h418v-102zM936 8h-121v120h121v-120zM276 8h-115v564h-107v82q96 6 127 99h95v-745z" />
    <glyph glyph-name="uni2499" unicode="&#x2499;" 
d="M799 232q0 -107 -58 -169q-58 -64 -162 -64q-105 0 -165 64q-62 62 -62 169q0 124 102 183q-77 46 -77 148q0 90 55 144q56 54 145 54q88 0 143 -54t55 -144q0 -101 -77 -148q101 -58 101 -183zM936 8h-121v120h121v-120zM276 8h-115v564h-107v82q96 6 127 99h95v-745z
M659 563q0 87 -82 87q-84 0 -84 -87q0 -95 85 -95q81 0 81 95zM683 227q0 57 -28 92q-28 36 -81 36q-51 0 -78 -36q-28 -36 -28 -92q0 -54 30 -84q28 -32 81 -32q104 0 104 116z" />
    <glyph glyph-name="uni249A" unicode="&#x249a;" 
d="M811 371q0 -372 -239 -372q-61 0 -106 39q-45 38 -68 104l90 54q41 -85 84 -85q106 0 120 188q-46 -41 -113 -41q-103 0 -159 70q-51 65 -51 170q0 111 49 181q57 82 164 82q142 0 195 -138q34 -86 34 -252zM936 8h-121v120h121v-120zM276 8h-115v564h-107v82
q96 6 127 99h95v-745zM694 434q-2 96 -15 138q-25 78 -97 78q-97 0 -97 -152q0 -127 101 -127q67 0 108 63z" />
    <glyph glyph-name="uni249B" unicode="&#x249b;" 
d="M822 380q0 -153 -26 -237q-45 -144 -167 -144q-194 0 -194 381t194 381q122 0 167 -142q26 -84 26 -239zM936 8h-121v120h121v-120zM413 568q0 -81 -34 -153q-21 -45 -76 -123q-56 -77 -73 -100q-27 -43 -41 -76h223v-108h-373q10 95 65 188q17 28 115 165q74 102 74 207
q0 82 -66 82q-72 0 -84 -155l-105 30q5 103 51 167q51 69 138 69q81 0 131 -50q55 -52 55 -143zM708 380q0 270 -79 270q-46 0 -67 -112q-12 -70 -12 -158q0 -269 79 -269t79 269z" />
    <glyph glyph-name="SF100000" unicode="&#x2500;" 
d="M1024 331h-1024v73h1024v-73z" />
    <glyph glyph-name="uni2501" unicode="&#x2501;" 
d="M1024 308h-1024v119h1024v-119z" />
    <glyph glyph-name="SF110000" unicode="&#x2502;" 
d="M549 -144h-73v1024h73v-1024z" />
    <glyph glyph-name="uni2503" unicode="&#x2503;" 
d="M572 -144h-119v1024h119v-1024z" />
    <glyph glyph-name="uni2504" unicode="&#x2504;" 
d="M959 331h-224v73h224v-73zM620 331h-221v73h221v-73zM284 331h-221v73h221v-73z" />
    <glyph glyph-name="uni2505" unicode="&#x2505;" 
d="M959 308h-224v119h224v-119zM620 308h-221v119h221v-119zM284 308h-221v119h221v-119z" />
    <glyph glyph-name="uni2506" unicode="&#x2506;" 
d="M549 596h-73v221h73v-221zM549 260h-73v221h73v-221zM549 -79h-73v224h73v-224z" />
    <glyph glyph-name="uni2507" unicode="&#x2507;" 
d="M572 596h-119v221h119v-221zM572 260h-119v221h119v-221zM572 -79h-119v224h119v-224z" />
    <glyph glyph-name="uni2508" unicode="&#x2508;" 
d="M991 331h-199v73h199v-73zM735 331h-199v73h199v-73zM483 331h-199v73h199v-73zM227 331h-195v73h195v-73z" />
    <glyph glyph-name="uni2509" unicode="&#x2509;" 
d="M991 308h-199v119h199v-119zM735 308h-199v119h199v-119zM483 308h-199v119h199v-119zM227 308h-195v119h195v-119z" />
    <glyph glyph-name="uni250A" unicode="&#x250a;" 
d="M549 653h-73v195h73v-195zM549 397h-73v199h73v-199zM549 145h-73v199h73v-199zM549 -111h-73v199h73v-199z" />
    <glyph glyph-name="uni250B" unicode="&#x250b;" 
d="M572 653h-119v195h119v-195zM572 397h-119v199h119v-199zM572 145h-119v199h119v-199zM572 -111h-119v199h119v-199z" />
    <glyph glyph-name="SF010000" unicode="&#x250c;" 
d="M1024 331h-475v-475h-73v548h548v-73z" />
    <glyph glyph-name="uni250D" unicode="&#x250d;" 
d="M1024 308h-475v-452h-73v571h548v-119z" />
    <glyph glyph-name="uni250E" unicode="&#x250e;" 
d="M1024 331h-452v-475h-119v548h571v-73z" />
    <glyph glyph-name="uni250F" unicode="&#x250f;" 
d="M1024 308h-452v-452h-119v571h571v-119z" />
    <glyph glyph-name="SF030000" unicode="&#x2510;" 
d="M549 -144h-73v475h-476v73h549v-548z" />
    <glyph glyph-name="uni2511" unicode="&#x2511;" 
d="M549 -144h-73v452h-476v119h549v-571z" />
    <glyph glyph-name="uni2512" unicode="&#x2512;" 
d="M572 -144h-119v475h-453v73h572v-548z" />
    <glyph glyph-name="uni2513" unicode="&#x2513;" 
d="M572 -144h-119v452h-453v119h572v-571z" />
    <glyph glyph-name="SF020000" unicode="&#x2514;" 
d="M1024 331h-548v549h73v-476h475v-73z" />
    <glyph glyph-name="uni2515" unicode="&#x2515;" 
d="M1024 308h-548v572h73v-453h475v-119z" />
    <glyph glyph-name="uni2516" unicode="&#x2516;" 
d="M1024 331h-571v549h119v-476h452v-73z" />
    <glyph glyph-name="uni2517" unicode="&#x2517;" 
d="M1024 308h-571v572h119v-453h452v-119z" />
    <glyph glyph-name="SF040000" unicode="&#x2518;" 
d="M549 331h-549v73h476v476h73v-549z" />
    <glyph glyph-name="uni2519" unicode="&#x2519;" 
d="M549 308h-549v119h476v453h73v-572z" />
    <glyph glyph-name="uni251A" unicode="&#x251a;" 
d="M572 331h-572v73h453v476h119v-549z" />
    <glyph glyph-name="uni251B" unicode="&#x251b;" 
d="M572 308h-572v119h453v453h119v-572z" />
    <glyph glyph-name="SF080000" unicode="&#x251c;" 
d="M1024 331h-475v-475h-73v1024h73v-476h475v-73z" />
    <glyph glyph-name="uni251D" unicode="&#x251d;" 
d="M1024 308h-475v-452h-73v1024h73v-453h475v-119z" />
    <glyph glyph-name="uni251E" unicode="&#x251e;" 
d="M1024 331h-475v-475h-73v475h-23v549h119v-476h452v-73z" />
    <glyph glyph-name="uni251F" unicode="&#x251f;" 
d="M1024 331h-452v-475h-119v548h23v476h73v-476h475v-73z" />
    <glyph glyph-name="uni2520" unicode="&#x2520;" 
d="M1024 331h-452v-475h-119v1024h119v-476h452v-73z" />
    <glyph glyph-name="uni2521" unicode="&#x2521;" 
d="M1024 308h-475v-452h-73v452h-23v572h119v-453h452v-119z" />
    <glyph glyph-name="uni2522" unicode="&#x2522;" 
d="M1024 308h-452v-452h-119v571h23v453h73v-453h475v-119z" />
    <glyph glyph-name="uni2523" unicode="&#x2523;" 
d="M1024 308h-452v-452h-119v1024h119v-453h452v-119z" />
    <glyph glyph-name="SF090000" unicode="&#x2524;" 
d="M549 -144h-73v475h-476v73h476v476h73v-1024z" />
    <glyph glyph-name="uni2525" unicode="&#x2525;" 
d="M549 -144h-73v452h-476v119h476v453h73v-1024z" />
    <glyph glyph-name="uni2526" unicode="&#x2526;" 
d="M572 331h-23v-475h-73v475h-476v73h453v476h119v-549z" />
    <glyph glyph-name="uni2527" unicode="&#x2527;" 
d="M572 -144h-119v475h-453v73h476v476h73v-549h23v-475z" />
    <glyph glyph-name="uni2528" unicode="&#x2528;" 
d="M572 -144h-119v475h-453v73h453v476h119v-1024z" />
    <glyph glyph-name="uni2529" unicode="&#x2529;" 
d="M572 308h-23v-452h-73v452h-476v119h453v453h119v-572z" />
    <glyph glyph-name="uni252A" unicode="&#x252a;" 
d="M572 -144h-119v452h-453v119h476v453h73v-453h23v-571z" />
    <glyph glyph-name="uni252B" unicode="&#x252b;" 
d="M572 -144h-119v452h-453v119h453v453h119v-1024z" />
    <glyph glyph-name="SF060000" unicode="&#x252c;" 
d="M1024 331h-475v-475h-73v475h-476v73h1024v-73z" />
    <glyph glyph-name="uni252D" unicode="&#x252d;" 
d="M1024 331h-475v-475h-73v452h-476v119h549v-23h475v-73z" />
    <glyph glyph-name="uni252E" unicode="&#x252e;" 
d="M1024 308h-475v-452h-73v475h-476v73h476v23h548v-119z" />
    <glyph glyph-name="uni252F" unicode="&#x252f;" 
d="M1024 308h-475v-452h-73v452h-476v119h1024v-119z" />
    <glyph glyph-name="uni2530" unicode="&#x2530;" 
d="M1024 331h-452v-475h-119v475h-453v73h1024v-73z" />
    <glyph glyph-name="uni2531" unicode="&#x2531;" 
d="M1024 331h-452v-475h-119v452h-453v119h572v-23h452v-73z" />
    <glyph glyph-name="uni2532" unicode="&#x2532;" 
d="M1024 308h-452v-452h-119v475h-453v73h453v23h571v-119z" />
    <glyph glyph-name="uni2533" unicode="&#x2533;" 
d="M1024 308h-452v-452h-119v452h-453v119h1024v-119z" />
    <glyph glyph-name="SF070000" unicode="&#x2534;" 
d="M1024 331h-1024v73h476v476h73v-476h475v-73z" />
    <glyph glyph-name="uni2535" unicode="&#x2535;" 
d="M1024 331h-475v-23h-549v119h476v453h73v-476h475v-73z" />
    <glyph glyph-name="uni2536" unicode="&#x2536;" 
d="M1024 308h-548v23h-476v73h476v476h73v-453h475v-119z" />
    <glyph glyph-name="uni2537" unicode="&#x2537;" 
d="M1024 308h-1024v119h476v453h73v-453h475v-119z" />
    <glyph glyph-name="uni2538" unicode="&#x2538;" 
d="M1024 331h-1024v73h453v476h119v-476h452v-73z" />
    <glyph glyph-name="uni2539" unicode="&#x2539;" 
d="M1024 331h-571v-23h-453v119h453v453h119v-476h452v-73z" />
    <glyph glyph-name="uni253A" unicode="&#x253a;" 
d="M1024 308h-571v23h-453v73h453v476h119v-453h452v-119z" />
    <glyph glyph-name="uni253B" unicode="&#x253b;" 
d="M1024 308h-1024v119h453v453h119v-453h452v-119z" />
    <glyph glyph-name="SF050000" unicode="&#x253c;" 
d="M1024 331h-475v-475h-73v475h-476v73h476v476h73v-476h475v-73z" />
    <glyph glyph-name="uni253D" unicode="&#x253d;" 
d="M1024 331h-475v-475h-73v452h-476v119h476v453h73v-476h475v-73z" />
    <glyph glyph-name="uni253E" unicode="&#x253e;" 
d="M1024 308h-475v-452h-73v475h-476v73h476v476h73v-453h475v-119z" />
    <glyph glyph-name="uni253F" unicode="&#x253f;" 
d="M1024 308h-475v-452h-73v452h-476v119h476v453h73v-453h475v-119z" />
    <glyph glyph-name="uni2540" unicode="&#x2540;" 
d="M1024 331h-475v-475h-73v475h-476v73h453v476h119v-476h452v-73z" />
    <glyph glyph-name="uni2541" unicode="&#x2541;" 
d="M1024 331h-452v-475h-119v475h-453v73h476v476h73v-476h475v-73z" />
    <glyph glyph-name="uni2542" unicode="&#x2542;" 
d="M1024 331h-452v-475h-119v475h-453v73h453v476h119v-476h452v-73z" />
    <glyph glyph-name="uni2543" unicode="&#x2543;" 
d="M1024 331h-475v-475h-73v452h-476v119h453v453h119v-476h452v-73z" />
    <glyph glyph-name="uni2544" unicode="&#x2544;" 
d="M1024 308h-475v-452h-73v475h-476v73h453v476h119v-453h452v-119z" />
    <glyph glyph-name="uni2545" unicode="&#x2545;" 
d="M1024 331h-452v-475h-119v452h-453v119h476v453h73v-476h475v-73z" />
    <glyph glyph-name="uni2546" unicode="&#x2546;" 
d="M1024 308h-452v-452h-119v475h-453v73h476v476h73v-453h475v-119z" />
    <glyph glyph-name="uni2547" unicode="&#x2547;" 
d="M1024 308h-475v-452h-73v452h-476v119h453v453h119v-453h452v-119z" />
    <glyph glyph-name="uni2548" unicode="&#x2548;" 
d="M1024 308h-452v-452h-119v452h-453v119h476v453h73v-453h475v-119z" />
    <glyph glyph-name="uni2549" unicode="&#x2549;" 
d="M1024 331h-452v-475h-119v452h-453v119h453v453h119v-476h452v-73z" />
    <glyph glyph-name="uni254A" unicode="&#x254a;" 
d="M1024 308h-452v-452h-119v475h-453v73h453v476h119v-453h452v-119z" />
    <glyph glyph-name="uni254B" unicode="&#x254b;" 
d="M1024 308h-452v-452h-119v452h-453v119h453v453h119v-453h452v-119z" />
    <glyph glyph-name="filledbox" unicode="&#x25a0;" 
d="M895 -15h-766v766h766v-766z" />
    <glyph glyph-name="H22073" unicode="&#x25a1;" 
d="M895 -15h-766v766h766v-766zM816 64v608h-608v-608h608z" />
    <glyph glyph-name="triagup" unicode="&#x25b2;" 
d="M969 -24h-914l457 785z" />
    <glyph glyph-name="uni25B3" unicode="&#x25b3;" 
d="M969 -24h-914l457 785zM836 53l-324 555l-323 -555h647z" />
    <glyph glyph-name="uni25C6" unicode="&#x25c6;" 
d="M980 368l-468 -468l-468 468l468 468z" />
    <glyph glyph-name="uni25C7" unicode="&#x25c7;" 
d="M980 368l-468 -468l-468 468l468 468zM879 368l-367 367l-367 -367l367 -367z" />
    <glyph glyph-name="circle" unicode="&#x25cb;" 
d="M970 368q0 -190 -134 -324t-324 -134t-324 134t-134 324t134 324t324 134t324 -134t134 -324zM892 368q0 160 -110 270t-270 110q-159 0 -269 -111q-111 -110 -111 -269q0 -158 112 -268q110 -112 268 -112q159 0 269 111q111 110 111 269z" />
    <glyph glyph-name="uni25CE" unicode="&#x25ce;" 
d="M970 368q0 -190 -134 -324t-324 -134t-324 134t-134 324t134 324t324 134t324 -134t134 -324zM891 368q0 159 -111 268q-109 111 -268 111t-268 -111q-111 -109 -111 -268t111 -268q109 -111 268 -111t268 111q111 109 111 268zM819 367q0 -128 -90 -218
q-89 -89 -217 -89t-217 89q-90 90 -90 218t90 218q89 89 217 89t217 -89q90 -90 90 -218zM740 367q0 96 -66 163q-66 65 -162 65q-95 0 -162 -66q-66 -67 -66 -162q0 -94 66 -161q68 -67 162 -67q95 0 162 66q66 67 66 162z" />
    <glyph glyph-name="H18533" unicode="&#x25cf;" 
d="M970 368q0 -190 -134 -324t-324 -134t-324 134t-134 324t134 324t324 134t324 -134t134 -324z" />
    <glyph glyph-name="uni2605" unicode="&#x2605;" 
d="M994 482l-291 -225l120 -362l-311 227l-312 -227l119 362l-289 225h362l119 358l121 -358h362z" />
    <glyph glyph-name="uni2606" unicode="&#x2606;" 
d="M994 482l-291 -225l120 -362l-311 227l-312 -227l119 362l-289 225h362l119 358l121 -358h362zM768 405h-193l-63 190l-63 -190h-193l154 -120l-61 -186l163 119l163 -119l-62 186z" />
    <glyph glyph-name="female" unicode="&#x2640;" 
d="M806 224h-236v-276h-107v276h-245v109h245v36q-69 18 -112 77q-43 57 -43 130q0 88 61 150q60 62 147 62q88 0 148 -62q60 -61 60 -150q0 -73 -42 -130q-43 -58 -112 -76v-37h236v-109zM616 576q0 43 -28 73q-30 29 -72 29q-41 0 -71 -29q-29 -31 -29 -73q0 -43 28 -74
q30 -31 72 -31q43 0 72 30q28 31 28 75z" />
    <glyph glyph-name="male" unicode="&#x2642;" 
d="M757 464l-58 -58l-134 144v-188q68 -19 109 -76q41 -58 41 -131q0 -88 -60 -149q-58 -63 -144 -63q-85 0 -144 63q-60 62 -60 149q0 73 42 131q42 57 110 76v188l-134 -144l-58 58l245 328zM609 155q0 43 -27 74q-29 30 -71 30q-41 0 -70 -30q-28 -32 -28 -74
q0 -43 28 -73q29 -29 70 -29t70 29q28 30 28 73z" />
    <glyph glyph-name="uni3000" unicode="&#x3000;" 
 />
    <glyph glyph-name="uni3001" unicode="&#x3001;" 
d="M392 79l-90 -80q-79 111 -182 194l76 85q112 -93 196 -199z" />
    <glyph glyph-name="uni3002" unicode="&#x3002;" 
d="M395 139q0 -58 -41 -99t-98 -41t-98 41t-41 99q0 57 41 98t98 41t98 -41t41 -98zM318 139q0 25 -18 44q-18 18 -44 18t-44 -18q-18 -19 -18 -44q0 -26 18 -43q18 -19 44 -19t44 19q18 17 18 43z" />
    <glyph glyph-name="uni3003" unicode="&#x3003;" 
d="M780 492l-254 -330l-74 53l215 349zM556 495l-234 -321l-78 51l208 334z" />
    <glyph glyph-name="uni3005" unicode="&#x3005;" 
d="M431 737q56 -29 136 -48q-38 -35 -55 -72q-9 -18 -18 -35q34 -1 69 -1h88q86 0 172 7q-67 -153 -141 -246q-51 -72 -128 -146q39 -34 82 -68q-53 -34 -96 -100q-29 42 -88 102q-63 62 -116 99q46 36 80 92q23 -25 52 -50q87 66 179 197h-84q-74 0 -146 -6
q-60 -86 -133 -166q-39 47 -109 80q113 89 176 188q58 84 80 173z" />
    <glyph glyph-name="uni3008" unicode="&#x3008;" 
d="M921 -77l-96 -53l-210 498l210 498l96 -53l-189 -445z" />
    <glyph glyph-name="uni3009" unicode="&#x3009;" 
d="M409 368l-210 -498l-96 53l189 445l-189 445l96 53z" />
    <glyph glyph-name="uni300A" unicode="&#x300a;" 
d="M999 -84l-87 -46l-220 498l220 498l87 -46l-199 -452zM845 -84l-88 -46l-220 498l220 498l88 -46l-200 -452z" />
    <glyph glyph-name="uni300B" unicode="&#x300b;" 
d="M487 368l-220 -498l-88 46l200 452l-200 452l88 46zM332 368l-220 -498l-87 46l199 452l-199 452l87 46z" />
    <glyph glyph-name="uni300C" unicode="&#x300c;" 
d="M927 748h-211v-878h-107v996h318v-118z" />
    <glyph glyph-name="uni300D" unicode="&#x300d;" 
d="M415 -130h-318v118h211v878h107v-996z" />
    <glyph glyph-name="uni300E" unicode="&#x300e;" 
d="M927 654h-118v-784h-200v996h318v-212zM845 741v38h-154v-822h37v784h117z" />
    <glyph glyph-name="uni300F" unicode="&#x300f;" 
d="M415 -130h-318v212h118v784h200v-996zM333 -43v822h-37v-784h-117v-38h154z" />
    <glyph glyph-name="uni3010" unicode="&#x3010;" 
d="M886 -130h-235v996h235q-61 -86 -98 -239q-32 -137 -32 -259t32 -259q37 -153 98 -239z" />
    <glyph glyph-name="uni3011" unicode="&#x3011;" 
d="M374 -130h-235q61 86 98 239q32 137 32 259t-32 259q-37 153 -98 239h235v-996z" />
    <glyph glyph-name="uni3013" unicode="&#x3013;" 
d="M830 472h-635v233h635v-233zM830 32h-635v233h635v-233z" />
    <glyph glyph-name="uni3014" unicode="&#x3014;" 
d="M912 -28l-53 -102l-235 168v661l235 167l53 -102l-184 -130v-531z" />
    <glyph glyph-name="uni3015" unicode="&#x3015;" 
d="M400 38l-235 -168l-53 102l184 131v531l-184 130l53 102l235 -167v-661z" />
    <glyph glyph-name="uni3016" unicode="&#x3016;" 
d="M933 -130h-330v996h330q-63 -94 -99 -245q-32 -132 -32 -253t32 -253q36 -151 99 -245zM796 -41q-76 164 -76 409q0 246 76 410h-107v-819h107z" />
    <glyph glyph-name="uni3017" unicode="&#x3017;" 
d="M421 -130h-330q63 94 99 245q32 132 32 253t-32 253q-36 151 -99 245h330v-996zM335 -41v819h-107q76 -164 76 -410q0 -245 -76 -409h107z" />
    <glyph glyph-name="uni3041" unicode="&#x3041;" 
d="M830 180q0 -100 -69 -166q-56 -54 -150 -79q-26 53 -45 92q60 19 100 53q54 44 54 100q0 78 -80 102q-57 -101 -123 -171q10 -31 24 -59l-101 -50q-5 12 -16 35q-63 -40 -111 -40q-54 0 -87 38q-32 38 -32 92q0 77 58 146q52 61 131 96q3 35 8 74q-41 0 -157 7l8 108
q98 -6 140 -6h26q9 58 18 102l113 -13l-16 -78q103 14 192 48l7 -111q-89 -33 -216 -48l-7 -51q32 4 68 4q6 12 17 36l105 -34q-2 -5 -8 -21q149 -58 149 -206zM527 299l-44 -9l2 -60zM390 148q-9 44 -12 91q-73 -51 -73 -112q0 -19 12 -19q27 0 73 40z" />
    <glyph glyph-name="uni3042" unicode="&#x3042;" 
d="M921 232q0 -125 -119 -211q-92 -66 -238 -97l-50 105q106 25 179 64q112 60 112 139q0 60 -40 104q-38 41 -101 59q-78 -140 -169 -242q13 -41 32 -84l-102 -50q-10 22 -22 49q-87 -60 -156 -60q-66 0 -105 45q-39 44 -39 109q0 101 78 189q70 77 174 121q5 56 15 126
h-32q-62 0 -179 8l9 111q117 -7 170 -7q8 0 48 2q12 73 24 132l115 -12q-12 -63 -20 -109q159 21 263 59l6 -113q-115 -42 -287 -61q-7 -55 -13 -102q57 9 121 9q12 24 27 57l107 -43q-5 -11 -14 -32q206 -71 206 -265zM534 398q-41 -6 -71 -14q-1 -29 -1 -41q0 -6 3 -51
q29 40 69 106zM367 185q-18 79 -20 152q-127 -75 -127 -175q0 -42 27 -42q48 0 120 65z" />
    <glyph glyph-name="uni3043" unicode="&#x3043;" 
d="M824 159l-113 -28q-33 195 -154 346q50 26 100 53q131 -168 167 -371zM483 200q-58 -196 -140 -196q-74 0 -113 106q-29 80 -29 174q0 175 49 325l104 -37q-43 -132 -43 -288q0 -27 8 -75q12 -59 24 -59q9 0 22 44l21 77z" />
    <glyph glyph-name="uni3044" unicode="&#x3044;" 
d="M911 198q-41 -11 -124 -31q-42 247 -194 439q45 24 108 58q165 -211 210 -466zM460 238q-72 -241 -170 -241q-88 0 -137 130q-38 102 -38 227q0 231 59 412l114 -39q-50 -155 -50 -373q0 -109 30 -189q8 -22 19 -22q9 0 21 30q13 31 45 142z" />
    <glyph glyph-name="uni3045" unicode="&#x3045;" 
d="M697 602q-6 -55 -15 -113q-121 8 -170 14q-94 10 -167 32q20 71 28 109q111 -34 324 -42zM768 237q0 -122 -117 -217q-91 -74 -231 -117l-45 108q102 29 175 76q105 69 105 150q0 96 -99 96q-86 0 -262 -69l-41 104q199 79 303 79q94 0 153 -56q59 -58 59 -154z" />
    <glyph glyph-name="uni3046" unicode="&#x3046;" 
d="M745 786q-7 -54 -18 -124q-154 10 -213 17q-119 14 -209 39q6 28 31 119q136 -42 409 -51zM838 317q0 -154 -149 -275q-119 -96 -294 -148l-50 117q133 38 234 105q135 92 135 201q0 141 -144 141q-118 0 -343 -88l-44 114q246 96 387 96q121 0 194 -71q74 -70 74 -192z
" />
    <glyph glyph-name="uni3047" unicode="&#x3047;" 
d="M680 523q-198 1 -335 28l25 106q125 -25 310 -26v-108zM846 -42q-84 -15 -189 -15q-157 0 -157 112q0 15 1 49t1 53q-55 0 -138 -86q-24 -25 -109 -114l-81 81q186 203 336 320q-93 -20 -251 -29l-7 110q252 14 397 61l81 -98q-10 -7 -171 -140q55 -22 55 -97
q0 -19 -2 -57q-1 -37 -1 -43q0 -11 17 -11q97 0 214 21z" />
    <glyph glyph-name="uni3048" unicode="&#x3048;" 
d="M720 684q-244 1 -412 35l26 114q154 -31 386 -32v-117zM937 -48q-112 -17 -234 -17q-194 0 -194 133q0 21 1 64q2 42 2 64q0 21 -20 21q-79 0 -168 -88q-17 -15 -153 -168l-88 84q197 213 469 456q-207 -47 -363 -56l-8 116q262 15 507 95l91 -111q-126 -94 -252 -212
q105 -9 105 -119q0 -25 -1 -77q-2 -52 -2 -58q0 -27 74 -27q92 0 230 25z" />
    <glyph glyph-name="uni3049" unicode="&#x3049;" 
d="M839 434l-76 -82q-73 77 -158 144l66 84q97 -70 168 -146zM800 145q0 -75 -57 -127q-56 -51 -133 -51q-49 0 -128 37l48 102q60 -29 80 -29q29 0 54 20q25 19 25 48q0 51 -45 77q-37 21 -89 21q-47 0 -101 -14v-108q0 -168 -105 -168q-48 0 -104 62q-57 61 -57 109
q0 112 154 183v80q-26 -2 -42 -2q-34 0 -109 9l5 111q75 -8 104 -8q18 0 42 2v135h112v-116q63 14 130 44v-123q-61 -21 -130 -35v-62q58 13 101 13q101 0 170 -54q75 -58 75 -156zM342 177q-42 -33 -42 -53q0 -9 41 -53q1 30 1 106z" />
    <glyph glyph-name="uni304A" unicode="&#x304a;" 
d="M928 567l-82 -88q-86 93 -202 180l81 92q108 -81 203 -184zM883 185q0 -95 -72 -159q-71 -65 -166 -65q-57 0 -151 46l51 108q70 -34 100 -34q45 0 81 30t36 74q0 72 -64 111q-53 32 -128 32q-71 0 -148 -22v-153q0 -209 -124 -209q-59 0 -129 76t-70 137q0 143 204 231
v133q-49 -5 -71 -5q-43 0 -129 9l6 121q86 -9 123 -9q31 0 71 4v178h119v-159q94 19 173 54q0 -17 1 -41q1 -23 1 -31v-59q-80 -29 -175 -46v-109q87 21 148 21q129 0 216 -68q97 -72 97 -196zM303 84v169q-83 -53 -83 -96q0 -14 36 -53q30 -33 38 -33q9 0 9 13z" />
    <glyph glyph-name="uni304B" unicode="&#x304b;" 
d="M968 164l-115 -37q-67 258 -216 462l97 72q162 -222 234 -497zM651 346q0 -153 -58 -263q-73 -136 -210 -136q-17 0 -54 1l-34 134q52 -14 88 -14q80 0 120 110q27 76 27 168q0 70 -9 99q-18 52 -74 52q-14 0 -60 -4q-81 -344 -235 -555l-97 72q128 174 204 464
q-77 -15 -166 -39v126q103 26 196 41q16 89 28 210l120 -11q-9 -94 -24 -185q19 1 34 1q204 0 204 -271z" />
    <glyph glyph-name="uni304C" unicode="&#x304c;" 
d="M971 712l-72 -33q-27 72 -63 126l68 34q34 -55 67 -127zM886 654l-73 -34q-26 69 -63 125l69 36q34 -56 67 -127zM968 164l-115 -37q-67 258 -216 462l97 72q162 -222 234 -497zM651 346q0 -153 -58 -263q-73 -136 -210 -136q-17 0 -54 1l-34 134q52 -14 88 -14
q80 0 120 110q27 76 27 168q0 70 -9 99q-18 52 -74 52q-14 0 -60 -4q-81 -344 -235 -555l-97 72q128 174 204 464q-77 -15 -166 -39v126q103 26 196 41q16 89 28 210l120 -11q-9 -94 -24 -185q19 1 34 1q204 0 204 -271z" />
    <glyph glyph-name="uni304D" unicode="&#x304d;" 
d="M838 453q-66 -23 -153 -44q56 -86 145 -200l-72 -90q-211 97 -372 97q-122 0 -122 -55q0 -61 111 -90q74 -18 156 -18q107 0 209 16v-125q-78 -12 -209 -12q-148 0 -249 44q-137 59 -137 185q0 92 79 138q64 38 162 38q89 0 229 -38q-23 36 -53 85q-92 -14 -188 -14
q-82 0 -212 22v121q136 -23 212 -23q68 0 128 7q-21 43 -34 77q-53 -5 -97 -5q-68 0 -209 17v121q146 -18 209 -18q5 0 58 4q-16 66 -25 143h121q7 -71 23 -130q122 20 224 61v-130q-84 -29 -184 -47q17 -41 34 -74q106 23 216 68v-131z" />
    <glyph glyph-name="uni304E" unicode="&#x304e;" 
d="M1013 742l-72 -34q-27 72 -63 126l68 35q34 -56 67 -127zM928 682l-73 -33q-27 71 -63 126l69 34q34 -55 67 -127zM838 453q-66 -23 -153 -44q56 -86 145 -200l-72 -90q-211 97 -372 97q-122 0 -122 -55q0 -61 111 -90q74 -18 156 -18q107 0 209 16v-125
q-78 -12 -209 -12q-148 0 -249 44q-137 59 -137 185q0 92 79 138q64 38 162 38q89 0 229 -38q-23 36 -53 85q-92 -14 -188 -14q-82 0 -212 22v121q136 -23 212 -23q68 0 128 7q-21 43 -34 77q-53 -5 -97 -5q-68 0 -209 17v121q146 -18 209 -18q5 0 58 4q-16 66 -25 143h121
q7 -71 23 -130q122 20 224 61v-130q-84 -29 -184 -47q17 -41 34 -74q106 23 216 68v-131z" />
    <glyph glyph-name="uni304F" unicode="&#x304f;" 
d="M757 -50l-119 -57q-92 186 -294 394q-38 39 -49 55q-25 34 -25 68q0 38 40 79q35 32 70 62q42 38 116 128q72 89 119 169l122 -51q-126 -192 -311 -366q-19 -18 -19 -27q0 -8 21 -29q84 -80 173 -192q99 -125 156 -233z" />
    <glyph glyph-name="uni3050" unicode="&#x3050;" 
d="M950 579l-71 -34q-27 72 -64 126l69 35q34 -55 66 -127zM865 520l-72 -34q-27 71 -64 126l70 35q34 -56 66 -127zM757 -50l-119 -57q-92 186 -294 394q-38 39 -49 55q-25 34 -25 68q0 38 40 79q35 32 70 62q42 38 116 128q72 89 119 169l122 -51q-126 -192 -311 -366
q-19 -18 -19 -27q0 -8 21 -29q84 -80 173 -192q99 -125 156 -233z" />
    <glyph glyph-name="uni3051" unicode="&#x3051;" 
d="M883 537q-50 -21 -117 -35q0 -123 -3 -173q-7 -99 -33 -168q-60 -165 -285 -236l-65 109q198 60 242 178q20 55 24 133q1 31 0 138q-58 -6 -101 -6q-62 0 -215 16l2 120q154 -16 213 -16q45 0 99 7q-4 95 -13 222h123q5 -92 9 -203q60 12 120 38v-124zM294 784
q-53 -204 -53 -420q0 -170 35 -310l-118 -26q-37 149 -37 336q0 234 58 459z" />
    <glyph glyph-name="uni3052" unicode="&#x3052;" 
d="M1019 742l-72 -34q-26 72 -63 126l68 35q34 -56 67 -127zM924 693l-73 -34q-27 71 -64 126l70 35q34 -56 67 -127zM883 537q-50 -21 -117 -35q0 -123 -3 -173q-7 -99 -33 -168q-60 -165 -285 -236l-65 109q198 60 242 178q20 55 24 133q1 31 0 138q-58 -6 -101 -6
q-62 0 -215 16l2 120q154 -16 213 -16q45 0 99 7q-4 95 -13 222h123q5 -92 9 -203q60 12 120 38v-124zM294 784q-53 -204 -53 -420q0 -170 35 -310l-118 -26q-37 149 -37 336q0 234 58 459z" />
    <glyph glyph-name="uni3053" unicode="&#x3053;" 
d="M746 619q-116 -28 -219 -28q-144 0 -279 31v125q144 -33 279 -33q79 0 219 29v-124zM845 17q-112 -33 -286 -33q-380 0 -380 214q0 60 62 144l113 -47q-51 -68 -51 -97q0 -31 37 -52q63 -37 219 -37q158 0 286 41v-133z" />
    <glyph glyph-name="uni3054" unicode="&#x3054;" 
d="M1001 712l-71 -33q-27 72 -64 126l69 34q34 -55 66 -127zM916 654l-72 -34q-26 69 -64 125l70 36q34 -56 66 -127zM746 619q-116 -28 -219 -28q-144 0 -279 31v125q144 -33 279 -33q79 0 219 29v-124zM845 17q-112 -33 -286 -33q-380 0 -380 214q0 60 62 144l113 -47
q-51 -68 -51 -97q0 -31 37 -52q63 -37 219 -37q158 0 286 41v-133z" />
    <glyph glyph-name="uni3055" unicode="&#x3055;" 
d="M818 629q-92 -42 -203 -65q57 -101 200 -280l-78 -101q-164 96 -303 96q-53 0 -95 -16q-60 -23 -60 -71q0 -71 124 -102q77 -18 177 -18q58 0 130 11l-4 -124q-77 -12 -126 -12q-164 0 -270 41q-154 62 -154 204q0 102 91 161q79 50 187 50q63 0 157 -25q-62 87 -98 165
q-91 -11 -164 -11q-71 0 -204 16v120q138 -15 204 -15q60 0 118 6q-21 74 -33 173l122 -5q11 -89 30 -149q130 26 221 71z" />
    <glyph glyph-name="uni3056" unicode="&#x3056;" 
d="M1012 740l-72 -34q-27 72 -63 126l68 35q34 -56 67 -127zM927 680l-73 -33q-27 71 -63 125l69 35q34 -55 67 -127zM818 629q-92 -42 -203 -65q57 -101 200 -280l-78 -101q-164 96 -303 96q-53 0 -95 -16q-60 -23 -60 -71q0 -71 124 -102q77 -18 177 -18q58 0 130 11
l-4 -124q-77 -12 -126 -12q-164 0 -270 41q-154 62 -154 204q0 102 91 161q79 50 187 50q63 0 157 -25q-62 87 -98 165q-91 -11 -164 -11q-71 0 -204 16v120q138 -15 204 -15q60 0 118 6q-21 74 -33 173l122 -5q11 -89 30 -149q130 26 221 71z" />
    <glyph glyph-name="uni3057" unicode="&#x3057;" 
d="M829 244q-171 -289 -376 -289q-255 0 -255 344q0 269 22 526l128 -19q-12 -113 -23 -294q-10 -159 -10 -213q0 -96 21 -146q33 -77 117 -77q135 0 276 238z" />
    <glyph glyph-name="uni3058" unicode="&#x3058;" 
d="M739 618l-71 -34q-27 72 -64 126l69 35q34 -55 66 -127zM654 558l-72 -33q-27 71 -64 126l70 34q34 -55 66 -127zM829 244q-171 -289 -376 -289q-255 0 -255 344q0 269 22 526l128 -19q-12 -113 -23 -294q-10 -159 -10 -213q0 -96 21 -146q33 -77 117 -77q135 0 276 238z
" />
    <glyph glyph-name="uni3059" unicode="&#x3059;" 
d="M943 550h-297l-1 -204q11 -36 11 -77q0 -160 -70 -241q-76 -87 -283 -142l-49 112q80 19 127 36q80 30 128 87q-35 -9 -56 -9q-79 0 -126 51t-47 131q0 84 48 140q49 56 131 56q29 0 70 -21v80q-183 -5 -439 -22l-10 121q116 6 450 17v150l117 -6q0 -31 -1 -143l297 2
v-118zM528 300q0 31 -16 52t-47 21q-70 0 -70 -79q0 -29 19 -49q17 -20 47 -20q67 0 67 75z" />
    <glyph glyph-name="uni305A" unicode="&#x305a;" 
d="M991 744l-71 -34q-27 72 -64 126l69 35q33 -56 66 -127zM891 717l-73 -34q-26 72 -63 126l69 35q34 -55 67 -127zM943 550h-297l-1 -204q11 -36 11 -77q0 -160 -70 -241q-76 -87 -283 -142l-49 112q80 19 127 36q80 30 128 87q-35 -9 -56 -9q-79 0 -126 51t-47 131
q0 84 48 140q49 56 131 56q29 0 70 -21v80q-183 -5 -439 -22l-10 121q116 6 450 17v150l117 -6q0 -31 -1 -143l297 2v-118zM528 300q0 31 -16 52t-47 21q-70 0 -70 -79q0 -29 19 -49q17 -20 47 -20q67 0 67 75z" />
    <glyph glyph-name="uni305B" unicode="&#x305b;" 
d="M945 574l-8 -120q-82 0 -175 -4q-9 -116 -34 -173q-37 -88 -120 -88q-49 0 -128 29v126q93 -34 128 -34q27 0 32 134q-127 -9 -260 -27q0 -219 45 -280q36 -50 154 -50q87 0 229 19l-6 -129q-162 -9 -223 -9q-205 0 -274 132q-44 85 -45 300q-76 -13 -166 -33l-16 122
q78 16 185 34q5 168 5 220l120 -9q0 -75 -4 -194q115 13 259 24q4 157 4 236l121 -15l-1 -214q75 3 178 3z" />
    <glyph glyph-name="uni305C" unicode="&#x305c;" 
d="M1012 712l-72 -33q-27 72 -63 126l68 34q34 -55 67 -127zM927 654l-73 -34q-26 69 -63 125l69 36q34 -56 67 -127zM945 574l-8 -120q-82 0 -175 -4q-9 -116 -34 -173q-37 -88 -120 -88q-49 0 -128 29v126q93 -34 128 -34q27 0 32 134q-127 -9 -260 -27q0 -219 45 -280
q36 -50 154 -50q87 0 229 19l-6 -129q-162 -9 -223 -9q-205 0 -274 132q-44 85 -45 300q-76 -13 -166 -33l-16 122q78 16 185 34q5 168 5 220l120 -9q0 -75 -4 -194q115 13 259 24q4 157 4 236l121 -15l-1 -214q75 3 178 3z" />
    <glyph glyph-name="uni305D" unicode="&#x305d;" 
d="M898 400q-163 -1 -275 -45q-140 -55 -140 -164q0 -95 182 -121q51 -7 132 -9l-21 -121q-414 9 -414 251q0 85 70 165q-148 -30 -293 -65l-12 110q202 131 422 293q-141 -29 -275 -30l-4 120q257 0 414 51l81 -106q-175 -134 -366 -269q290 52 439 52h60v-112z" />
    <glyph glyph-name="uni305E" unicode="&#x305e;" 
d="M978 639l-72 -33q-26 71 -63 126l68 34q34 -55 67 -127zM893 580l-73 -34q-26 72 -63 126l69 35q34 -55 67 -127zM898 400q-163 -1 -275 -45q-140 -55 -140 -164q0 -94 181 -121q51 -7 133 -9l-21 -121q-414 9 -414 251q0 85 70 165q-148 -30 -293 -65l-12 110
q202 131 422 293q-141 -29 -275 -30l-4 120q257 0 414 51l81 -106q-175 -134 -366 -269q290 52 439 52h60v-112z" />
    <glyph glyph-name="uni305F" unicode="&#x305f;" 
d="M887 575l-5 -125q-235 0 -399 -54l-8 128q153 51 412 51zM931 -2q-84 -19 -182 -19q-121 0 -202 27q-127 40 -127 140q0 39 24 105l119 -29q-18 -50 -18 -76q0 -14 20 -20q70 -22 184 -22q88 0 172 19zM570 602q-77 -29 -174 -47q-66 -349 -193 -611l-113 44
q116 240 180 550q-79 -7 -169 -7v121q94 0 192 10q10 65 20 165l120 -13q-5 -39 -16 -135q70 16 141 44z" />
    <glyph glyph-name="uni3060" unicode="&#x3060;" 
d="M943 706l-72 -34q-26 72 -63 126l69 35q33 -55 66 -127zM858 647l-73 -34q-26 71 -63 126l70 35q33 -56 66 -127zM887 575l-5 -125q-235 0 -399 -54l-8 128q153 51 412 51zM931 -2q-84 -19 -182 -19q-121 0 -202 27q-127 40 -127 140q0 39 24 105l119 -29
q-18 -50 -18 -76q0 -14 20 -20q70 -22 184 -22q88 0 172 19zM570 602q-77 -29 -174 -47q-66 -349 -193 -611l-113 44q116 240 180 550q-79 -7 -169 -7v121q94 0 192 10q10 65 20 165l120 -13q-5 -39 -16 -135q70 16 141 44z" />
    <glyph glyph-name="uni3061" unicode="&#x3061;" 
d="M873 235q0 -158 -167 -232q-139 -61 -387 -61l-41 121q169 0 272 19q204 39 204 153q0 51 -36 81q-33 26 -85 26q-133 0 -302 -175l-102 68q58 153 88 318q-59 -3 -166 -3v119q91 0 184 7q8 66 10 139l119 -6q-3 -65 -9 -120q130 20 269 71v-127q-140 -50 -289 -68
q-19 -103 -40 -191q136 88 238 88q103 0 172 -63q68 -63 68 -164z" />
    <glyph glyph-name="uni3062" unicode="&#x3062;" 
d="M991 712l-71 -33q-27 72 -64 126l69 34q33 -55 66 -127zM906 654l-72 -34q-26 69 -64 125l70 36q33 -56 66 -127zM873 235q0 -158 -167 -232q-139 -61 -387 -61l-41 121q169 0 272 19q204 39 204 153q0 51 -36 81q-33 26 -85 26q-133 0 -302 -175l-102 68q58 153 88 318
q-59 -3 -166 -3v119q91 0 184 7q8 66 10 139l119 -6q-3 -65 -9 -120q130 20 269 71v-127q-140 -50 -289 -68q-19 -103 -40 -191q136 88 238 88q103 0 172 -63q68 -63 68 -164z" />
    <glyph glyph-name="uni3063" unicode="&#x3063;" 
d="M836 311q0 -129 -124 -212q-98 -66 -262 -95l-65 105q337 60 337 202q0 54 -46 85q-40 27 -94 27q-62 0 -182 -40q-95 -31 -185 -73l-29 109q255 118 396 118q106 0 178 -59q76 -64 76 -167z" />
    <glyph glyph-name="uni3064" unicode="&#x3064;" 
d="M927 390q0 -172 -167 -277q-123 -78 -325 -115l-69 112q436 79 436 280q0 77 -64 123q-56 41 -135 41q-81 0 -235 -52q-122 -40 -240 -94l-33 121q320 148 508 148q134 0 226 -76q98 -80 98 -211z" />
    <glyph glyph-name="uni3065" unicode="&#x3065;" 
d="M988 729l-72 -33q-26 71 -63 126l69 34q33 -55 66 -127zM903 670l-73 -34q-26 72 -63 126l70 35q33 -55 66 -127zM927 390q0 -172 -167 -277q-123 -78 -325 -115l-69 112q436 79 436 280q0 77 -64 123q-56 41 -135 41q-81 0 -235 -52q-122 -40 -240 -94l-33 121
q320 148 508 148q134 0 226 -76q98 -80 98 -211z" />
    <glyph glyph-name="uni3066" unicode="&#x3066;" 
d="M910 607q-174 -1 -298 -79q-138 -87 -138 -216q0 -211 307 -244l-11 -126q-180 18 -291 102q-130 100 -130 268q0 161 161 282q-192 -17 -394 -41l-3 130q516 53 797 59v-135z" />
    <glyph glyph-name="uni3067" unicode="&#x3067;" 
d="M948 424l-71 -33q-27 71 -64 125l69 35q33 -55 66 -127zM863 365l-72 -34q-27 72 -64 126l70 35q33 -55 66 -127zM910 607q-174 -1 -298 -79q-138 -87 -138 -216q0 -211 307 -244l-11 -126q-180 18 -291 102q-130 100 -130 268q0 161 161 282q-192 -17 -394 -41l-3 130
q516 53 797 59v-135z" />
    <glyph glyph-name="uni3068" unicode="&#x3068;" 
d="M850 436l-155 -37q-391 -101 -391 -216q0 -95 221 -95q165 0 289 19v-129q-109 -17 -289 -17q-137 0 -224 40q-122 56 -122 182q0 154 251 260q-40 97 -34 380l125 -1l1 -190q5 -107 26 -148q77 23 248 63z" />
    <glyph glyph-name="uni3069" unicode="&#x3069;" 
d="M950 689l-71 -34q-27 71 -64 126l69 34q34 -55 66 -126zM865 629l-72 -34q-27 72 -64 126l70 35q34 -55 66 -127zM850 436l-155 -37q-391 -101 -391 -216q0 -95 221 -95q165 0 289 19v-129q-109 -17 -289 -17q-137 0 -224 40q-122 56 -122 182q0 154 251 260
q-40 97 -34 380l125 -1l1 -190q5 -107 26 -148q77 23 248 63z" />
    <glyph glyph-name="uni306A" unicode="&#x306a;" 
d="M943 561l-62 -107q-133 56 -325 67l42 115q193 -9 345 -75zM553 755l-1 -130q-65 -32 -161 -49q-101 -297 -215 -445l-94 75q89 116 176 352q-51 -4 -130 -4v120q84 0 174 11q22 68 43 164l118 -26q-13 -59 -29 -113q62 16 119 45zM885 33l-87 -89q-67 68 -123 107
q-27 -62 -79 -95q-51 -32 -116 -32q-72 0 -131 43q-62 47 -62 115q0 77 58 122q52 40 133 40q37 0 82 -9q-19 105 -19 126q0 38 33 116l125 -29q-37 -61 -37 -87q0 -34 11 -88q6 -29 16 -88q96 -54 196 -152zM566 107q-49 17 -88 17q-70 0 -70 -42q0 -14 30 -27
q25 -11 42 -11q68 0 86 63z" />
    <glyph glyph-name="uni306B" unicode="&#x306b;" 
d="M817 595q-154 -41 -407 -41v124q235 0 407 45v-128zM892 186l-3 -129q-88 -27 -183 -27q-126 0 -211 30q-128 46 -128 151q0 47 28 129l122 -20l-2 -6q-26 -74 -26 -103q0 -27 86 -44q64 -12 131 -12q86 0 186 31zM308 741q-57 -258 -57 -493q0 -166 25 -275l-118 -14
q-26 110 -26 289q0 255 61 523z" />
    <glyph glyph-name="uni306C" unicode="&#x306c;" 
d="M948 31l-96 -63q-24 36 -50 69q-61 -53 -137 -53q-71 0 -116 35q-50 39 -50 110q0 64 41 102t103 38q60 0 130 -43q6 32 6 50q0 102 -47 173q-54 82 -153 82l-26 -2q-61 -206 -131 -335q25 -40 51 -71l-83 -84q-21 25 -38 47q-72 -84 -144 -84q-69 0 -103 59
q-26 47 -26 119q0 150 109 280q-31 122 -36 248l114 16q4 -92 21 -175q83 58 173 81q26 93 46 183l114 -22q-19 -83 -34 -144q147 -9 231 -120q78 -102 78 -251q0 -71 -26 -137q33 -38 79 -108zM720 120q-44 31 -72 31q-34 0 -34 -22q0 -29 51 -29q26 0 55 20zM418 492
q-59 -30 -99 -64q15 -43 37 -101q32 77 62 165zM289 193q-23 46 -56 130q-37 -76 -37 -143q0 -56 21 -56q28 0 72 69z" />
    <glyph glyph-name="uni306D" unicode="&#x306d;" 
d="M962 19l-104 -65q-28 43 -56 78q-68 -61 -163 -61q-76 0 -127 30q-63 37 -63 110q0 72 55 112q48 33 122 33q67 0 143 -41q8 43 8 84q0 98 -7 140q-17 98 -75 98q-112 0 -345 -241q-5 -159 -5 -369h-114q0 101 2 236l-106 -118l-62 100q75 109 177 269q2 51 4 93
q-70 -10 -144 -14l-6 119q104 7 159 15q7 74 25 207l112 -17q-12 -78 -20 -157l23 11l65 -79q-20 -33 -48 -82q173 147 283 147q125 0 171 -130q29 -79 29 -228q0 -86 -27 -160q48 -50 94 -120zM713 111q-49 28 -87 28q-59 0 -59 -28q0 -9 33 -16q26 -7 39 -7q38 0 74 23z
" />
    <glyph glyph-name="uni306E" unicode="&#x306e;" 
d="M919 357q0 -169 -116 -269q-101 -87 -279 -115l-49 119q321 46 321 265q0 121 -74 198q-74 78 -195 78q-130 0 -217 -109q-82 -102 -82 -235q0 -39 18 -82q21 -53 53 -53q26 0 81 120q59 129 87 317l122 -17q-53 -346 -189 -489q-52 -54 -101 -54q-91 0 -146 86
q-48 75 -48 172q0 184 118 323q123 144 304 144q171 0 282 -114q110 -113 110 -285z" />
    <glyph glyph-name="uni306F" unicode="&#x306f;" 
d="M907 47l-91 -74q-45 57 -80 90q-67 -93 -190 -93q-83 0 -140 34q-71 43 -71 123q0 74 53 113q50 37 137 37q55 0 128 -26q-9 119 -15 236q-80 -8 -141 -8q-60 0 -149 8l-11 1l2 119q117 -9 158 -9q48 0 139 10v177h120v-162q70 12 130 37v-123q-48 -19 -130 -34
q2 -67 10 -178q8 -104 8 -140q64 -48 133 -138zM300 745q-59 -231 -59 -512q0 -146 30 -264l-115 -23q-35 133 -35 287q0 291 66 550zM638 131q-51 30 -115 30q-68 0 -68 -34q0 -20 33 -31q28 -11 57 -11q64 0 93 46z" />
    <glyph glyph-name="uni3070" unicode="&#x3070;" 
d="M1015 740l-72 -34q-27 72 -63 126l68 35q34 -56 67 -127zM914 704l-72 -34q-27 72 -64 126l70 35q34 -55 66 -127zM907 47l-91 -74q-45 57 -80 90q-67 -93 -190 -93q-83 0 -140 34q-71 43 -71 123q0 74 53 113q50 37 137 37q55 0 128 -26q-9 119 -15 236q-80 -8 -141 -8
q-60 0 -149 8l-11 1l2 119q117 -9 158 -9q48 0 139 10v177h120v-162q70 12 130 37v-123q-48 -19 -130 -34q2 -67 10 -178q8 -104 8 -140q64 -48 133 -138zM300 745q-59 -231 -59 -512q0 -146 30 -264l-115 -23q-35 133 -35 287q0 291 66 550zM638 131q-51 30 -115 30
q-68 0 -68 -34q0 -20 33 -31q28 -11 57 -11q64 0 93 46z" />
    <glyph glyph-name="uni3071" unicode="&#x3071;" 
d="M994 768q0 -42 -29 -71q-30 -30 -72 -30t-72 30q-29 29 -29 71t29 72q30 30 72 30t72 -30q29 -30 29 -72zM907 47l-91 -74q-45 57 -80 90q-67 -93 -190 -93q-83 0 -140 34q-71 43 -71 123q0 74 53 113q50 37 137 37q55 0 128 -26q-9 119 -15 236q-80 -8 -141 -8
q-60 0 -149 8l-11 1l2 119q117 -9 158 -9q48 0 139 10v177h120v-162q70 12 130 37v-123q-48 -19 -130 -34q2 -67 10 -178q8 -104 8 -140q64 -48 133 -138zM300 745q-59 -231 -59 -512q0 -146 30 -264l-115 -23q-35 133 -35 287q0 291 66 550zM938 768q0 20 -12 32
q-14 13 -33 13t-32 -13t-13 -32q0 -17 14 -31t31 -14q18 0 32 14q13 13 13 31zM638 131q-51 30 -115 30q-68 0 -68 -34q0 -20 33 -31q28 -11 57 -11q64 0 93 46z" />
    <glyph glyph-name="uni3072" unicode="&#x3072;" 
d="M944 294l-99 -80q-50 63 -96 157q-20 -171 -106 -288q-99 -133 -247 -133q-125 0 -197 91q-68 84 -68 213q0 162 144 374q-105 -27 -167 -31l-27 117q180 13 337 85l77 -90q-101 -101 -165 -211q-78 -133 -78 -244q0 -74 33 -125q39 -58 111 -58q121 0 186 144
q50 112 50 244q0 65 -12 292l123 13q23 -121 76 -245q55 -133 125 -225z" />
    <glyph glyph-name="uni3073" unicode="&#x3073;" 
d="M999 727l-71 -33q-27 71 -64 126l69 34q34 -55 66 -127zM914 668l-72 -34q-27 72 -64 126l70 35q34 -55 66 -127zM944 294l-99 -80q-50 63 -96 157q-20 -171 -106 -288q-99 -133 -247 -133q-125 0 -197 91q-68 84 -68 213q0 162 144 374q-105 -27 -167 -31l-27 117
q180 13 337 85l77 -90q-101 -101 -165 -211q-78 -133 -78 -244q0 -74 33 -125q39 -58 111 -58q121 0 186 144q50 112 50 244q0 65 -12 292l123 13q23 -121 76 -245q55 -133 125 -225z" />
    <glyph glyph-name="uni3074" unicode="&#x3074;" 
d="M978 748q0 -42 -30 -72q-29 -29 -71 -29t-72 29q-30 30 -30 72t30 72q30 29 72 29t71 -29q30 -30 30 -72zM944 294l-99 -80q-50 63 -96 157q-20 -171 -106 -288q-99 -133 -247 -133q-125 0 -197 91q-68 84 -68 213q0 162 144 374q-105 -27 -167 -31l-27 117
q180 13 337 85l77 -90q-101 -101 -165 -211q-78 -133 -78 -244q0 -74 33 -125q39 -58 111 -58q121 0 186 144q50 112 50 244q0 65 -12 292l123 13q23 -121 76 -245q55 -133 125 -225zM922 748q0 19 -13 32t-32 13t-32 -13q-14 -14 -14 -32t15 -32q13 -13 31 -13t31 13
q14 13 14 32z" />
    <glyph glyph-name="uni3075" unicode="&#x3075;" 
d="M684 673l-84 -94q-133 91 -300 138l68 103q176 -42 316 -147zM983 90l-112 -46q-51 170 -174 295l101 68q132 -133 185 -317zM686 170q0 -93 -52 -156q-55 -68 -146 -68q-90 0 -191 104l68 103q84 -86 123 -86q38 0 59 35q15 28 15 67q0 139 -251 296l82 93
q120 -67 198 -159q95 -113 95 -229zM420 238q-74 -43 -166 -114q-97 -75 -150 -133l-63 104q49 55 146 130q92 71 163 112z" />
    <glyph glyph-name="uni3076" unicode="&#x3076;" 
d="M941 593l-72 -34q-26 72 -63 126l68 35q34 -55 67 -127zM856 534l-73 -34q-26 72 -63 126l70 35q33 -55 66 -127zM684 673l-84 -94q-133 91 -300 138l68 103q176 -42 316 -147zM983 90l-112 -46q-51 170 -174 295l101 68q132 -133 185 -317zM686 170q0 -93 -52 -156
q-55 -68 -146 -68q-90 0 -191 104l68 103q84 -86 123 -86q38 0 59 35q15 28 15 67q0 139 -251 296l82 93q120 -67 198 -159q95 -113 95 -229zM420 238q-74 -43 -166 -114q-97 -75 -150 -133l-63 104q49 55 146 130q92 71 163 112z" />
    <glyph glyph-name="uni3077" unicode="&#x3077;" 
d="M920 611q0 -42 -30 -72t-72 -30t-72 30q-29 30 -29 72t29 71q30 30 72 30t72 -30q30 -29 30 -71zM684 673l-84 -94q-133 91 -300 138l68 103q176 -42 316 -147zM983 90l-112 -46q-51 170 -174 295l101 68q132 -133 185 -317zM686 170q0 -93 -52 -156q-55 -68 -146 -68
q-90 0 -191 104l68 103q84 -86 123 -86q38 0 59 35q15 28 15 67q0 139 -251 296l82 93q120 -67 198 -159q95 -113 95 -229zM420 238q-74 -43 -166 -114q-97 -75 -150 -133l-63 104q49 55 146 130q92 71 163 112zM863 611q0 19 -13 31q-12 14 -32 14q-18 0 -32 -14
q-13 -13 -13 -31t13 -32q15 -13 32 -13q19 0 32 13t13 32z" />
    <glyph glyph-name="uni3078" unicode="&#x3078;" 
d="M958 164l-63 -111q-97 65 -237 219q-124 138 -175 215q-33 52 -54 52q-29 0 -82 -56q-18 -20 -201 -220l-81 91l199 221q80 89 165 89q90 0 163 -111q43 -64 161 -195q128 -142 205 -194z" />
    <glyph glyph-name="uni3079" unicode="&#x3079;" 
d="M884 602l-72 -33q-27 71 -63 126l68 34q34 -55 67 -127zM799 543l-73 -34q-27 72 -63 126l69 35q34 -55 67 -127zM958 164l-63 -111q-97 65 -237 219q-124 138 -175 215q-33 52 -54 52q-29 0 -82 -56q-18 -20 -201 -220l-81 91l199 221q80 89 165 89q90 0 163 -111
q43 -64 161 -195q128 -142 205 -194z" />
    <glyph glyph-name="uni307A" unicode="&#x307a;" 
d="M869 629q0 -42 -29 -72q-30 -29 -72 -29t-72 29q-29 30 -29 72t29 72q30 29 72 29t72 -29q29 -30 29 -72zM958 164l-63 -111q-97 65 -237 219q-124 138 -175 215q-33 52 -54 52q-29 0 -82 -56q-18 -20 -201 -220l-81 91l199 221q80 89 165 89q90 0 163 -111
q43 -64 161 -195q128 -142 205 -194zM813 629q0 20 -12 32q-14 13 -33 13q-18 0 -32 -13q-13 -13 -13 -32q0 -17 14 -32q14 -13 31 -13q18 0 32 13q13 14 13 32z" />
    <glyph glyph-name="uni307B" unicode="&#x307b;" 
d="M910 56l-85 -85q-59 60 -108 96q-54 -106 -185 -106q-79 0 -136 36q-66 43 -66 121q0 76 59 114q49 31 127 31q49 0 107 -16l-12 143q-140 -20 -284 -20v120q132 0 279 20v127q-124 -17 -237 -17v120q105 0 239 20q131 20 199 47v-122q-36 -14 -82 -25v-129q58 13 117 35
v-123q-55 -20 -112 -33q0 -6 8 -110q5 -64 5 -107q79 -48 167 -137zM280 747q-64 -243 -64 -510q0 -139 34 -273l-119 -20q-34 134 -34 293q0 295 67 546zM612 128q-62 23 -96 23q-65 0 -65 -33q0 -22 29 -36q24 -10 51 -10q56 0 81 56z" />
    <glyph glyph-name="uni307C" unicode="&#x307c;" 
d="M1015 654l-72 -34q-27 72 -63 126l68 35q34 -56 67 -127zM940 574l-73 -34q-26 72 -63 126l69 35q34 -55 67 -127zM910 56l-85 -85q-59 60 -108 96q-54 -106 -185 -106q-79 0 -136 36q-66 43 -66 121q0 76 59 114q49 31 127 31q49 0 107 -16l-12 143q-140 -20 -284 -20
v120q132 0 279 20v127q-124 -17 -237 -17v120q105 0 239 20q131 20 199 47v-122q-36 -14 -82 -25v-129q58 13 117 35v-123q-55 -20 -112 -33q0 -6 8 -110q5 -64 5 -107q79 -48 167 -137zM280 747q-64 -243 -64 -510q0 -139 34 -273l-119 -20q-34 134 -34 293q0 295 67 546z
M612 128q-62 23 -96 23q-65 0 -65 -33q0 -22 29 -36q24 -10 51 -10q56 0 81 56z" />
    <glyph glyph-name="uni307D" unicode="&#x307d;" 
d="M1017 660q0 -42 -30 -72t-72 -30t-71 30q-30 30 -30 72t30 72q29 29 71 29t72 -29q30 -30 30 -72zM910 56l-85 -85q-59 60 -108 96q-54 -106 -185 -106q-79 0 -136 36q-66 43 -66 121q0 76 59 114q49 31 127 31q49 0 107 -16l-12 143q-140 -20 -284 -20v120q132 0 279 20
v127q-124 -17 -237 -17v120q105 0 239 20q131 20 199 47v-122q-36 -14 -82 -25v-129q58 13 117 35v-123q-55 -20 -112 -33q0 -6 8 -110q5 -64 5 -107q79 -48 167 -137zM280 747q-64 -243 -64 -510q0 -139 34 -273l-119 -20q-34 134 -34 293q0 295 67 546zM961 660
q0 19 -13 32t-33 13q-18 0 -31 -13q-14 -14 -14 -32t15 -32q13 -13 30 -13q19 0 32 13q14 13 14 32zM612 128q-62 23 -96 23q-65 0 -65 -33q0 -22 29 -36q24 -10 51 -10q56 0 81 56z" />
    <glyph glyph-name="uni307E" unicode="&#x307e;" 
d="M867 20l-93 -91q-103 99 -193 146q-41 -141 -204 -141q-87 0 -145 34q-70 42 -70 126q0 79 69 121q57 34 140 34q44 0 103 -10q-1 26 -2 89h-37q-82 0 -139 18q-84 29 -84 92q0 46 43 98l104 -42q-19 -25 -19 -34q0 -13 16 -13q47 0 114 2v102q-36 -1 -40 -1
q-144 0 -268 20v120q125 -20 268 -20q1 0 35 1q-2 34 -9 144h128q0 -16 3 -135q151 15 267 43v-121q-124 -30 -265 -44q0 -12 1 -98q110 14 221 45v-124q-93 -27 -220 -43l2 -133q160 -85 274 -185zM471 117q-50 11 -100 11q-25 0 -53 -7q-37 -10 -37 -27q0 -39 96 -39
q40 0 59 10q27 14 35 52z" />
    <glyph glyph-name="uni307F" unicode="&#x307f;" 
d="M948 281l-50 -114q-49 22 -120 50q-76 -218 -300 -303l-77 100q202 69 265 245q-142 49 -228 59q-29 -60 -45 -87q-26 -47 -52 -82q-74 -99 -147 -99q-53 0 -83 36q-32 37 -32 91q0 112 88 186q80 67 195 76q59 122 107 230q-108 -27 -230 -33l-6 121q196 11 333 75
l71 -64q-66 -157 -143 -337q86 -15 199 -51q10 79 10 194l119 -17q0 -131 -13 -218q62 -24 139 -58zM292 297q-46 -4 -74 -42q-24 -33 -24 -74q0 -12 16 -12q14 0 82 128z" />
    <glyph glyph-name="uni3080" unicode="&#x3080;" 
d="M956 506l-91 -80q-113 135 -206 192l85 89q89 -55 212 -201zM846 111q0 -173 -320 -173q-133 0 -204 28q-111 42 -110 150v10q-14 -1 -17 -1q-55 0 -89 38t-34 92q0 90 55 168q61 85 147 85q10 0 20 -1l6 51q-6 0 -11 -1h-6q-109 0 -201 24v123q98 -26 201 -26q13 0 27 1
q3 60 6 141l121 -2q-2 -61 -6 -122q63 12 128 38v-122q-56 -25 -140 -40q-10 -84 -26 -173q5 -19 5 -32q0 -33 -33 -120q-33 -88 -33 -131q0 -57 194 -57q199 0 199 57q0 61 -35 137l119 12q37 -94 37 -154zM271 370v17q-30 -6 -51 -32q-31 -39 -31 -98q0 -12 12 -12
q27 0 51 50q19 43 19 75z" />
    <glyph glyph-name="uni3081" unicode="&#x3081;" 
d="M926 290q0 -266 -374 -352l-50 104q306 67 306 248q0 88 -57 149q-58 60 -148 72q-57 -185 -130 -315q24 -47 63 -102l-99 -67q-11 17 -38 59q-75 -87 -144 -87q-75 0 -119 61q-38 53 -38 130q0 83 39 167q36 80 99 142q-27 105 -45 220l114 34q12 -87 34 -177
q83 44 175 53q13 60 43 207l118 -26q-16 -92 -39 -184q129 -25 210 -117q80 -91 80 -219zM478 501q-60 -17 -107 -47q15 -50 42 -121q34 75 65 168zM338 203q-31 68 -63 162q-58 -85 -58 -175q0 -72 38 -72q25 0 83 85z" />
    <glyph glyph-name="uni3082" unicode="&#x3082;" 
d="M860 182q0 -112 -82 -189q-81 -77 -193 -77q-115 0 -187 69q-71 69 -71 182q0 20 1 37q-164 8 -164 129q0 57 55 139l95 -58q-31 -54 -31 -66q0 -23 63 -23q29 135 42 215q-107 11 -201 40l31 116q86 -27 188 -36q9 79 12 180l122 -2q-3 -99 -13 -179q76 3 132 11l1 -120
q-59 -9 -151 -12q-13 -78 -37 -200q37 10 52 15q29 9 63 25l25 -118q-74 -32 -162 -48q-6 -34 -6 -45q0 -62 39 -96q38 -34 102 -34q61 0 109 42q47 41 47 103q0 97 -126 203l72 91q173 -146 173 -294z" />
    <glyph glyph-name="uni3083" unicode="&#x3083;" 
d="M856 329q0 -89 -65 -149q-66 -60 -157 -60q-46 0 -128 36l20 113q66 -36 108 -36q44 0 77 26q32 26 32 70q0 71 -98 81q12 -30 25 -73l-107 -36q-15 53 -31 87q-52 -16 -111 -43q73 -250 91 -412l-111 -12q-17 143 -83 375q-47 -25 -105 -63l-47 102q73 46 120 72
q-32 100 -57 162l106 33q27 -69 53 -147q48 21 93 36q-25 45 -56 82l96 56q37 -44 73 -110q23 3 45 3q88 0 151 -53q66 -55 66 -140z" />
    <glyph glyph-name="uni3084" unicode="&#x3084;" 
d="M951 437q0 -114 -83 -188q-82 -75 -196 -75q-85 0 -203 64l23 122q126 -65 180 -65q64 0 112 40q47 39 47 102q0 56 -49 90q-44 29 -104 29h-12q19 -46 35 -101l-113 -37q-17 56 -42 113q-86 -27 -172 -65q99 -336 122 -540l-121 -14q-23 197 -111 501q-74 -39 -143 -84
l-51 112q71 47 158 91q-40 127 -73 212l112 37q38 -94 71 -197q72 31 154 57q-38 71 -75 114l102 60q41 -48 91 -144q39 6 68 6q110 0 189 -63q84 -69 84 -177z" />
    <glyph glyph-name="uni3085" unicode="&#x3085;" 
d="M820 301q0 -103 -60 -172q-64 -70 -167 -73q-46 -81 -189 -143l-59 97q91 36 132 74q-81 35 -96 133q64 17 102 28q9 -30 36 -52q5 47 5 108q0 68 -1 114q-107 -48 -165 -185q-20 -47 -20 -92q0 -17 9 -86l-104 -17q-39 107 -39 219q0 184 51 341l105 -34
q-25 -81 -39 -188q86 127 198 159l-4 108l115 -1q0 -12 2 -103q90 -15 139 -80q49 -63 49 -155zM711 301q0 93 -77 120q1 -73 1 -120q0 -70 -7 -128q83 28 83 128z" />
    <glyph glyph-name="uni3086" unicode="&#x3086;" 
d="M908 398q0 -134 -80 -220q-83 -90 -217 -90q-57 -106 -236 -184l-63 100q127 52 177 110q-121 59 -154 216l112 32q20 -93 85 -135q12 72 12 171q0 41 -3 172q-102 -34 -189 -163q-86 -130 -86 -236q0 -25 9 -92l-111 -16q-48 152 -48 273q0 238 64 433l111 -37
q-40 -125 -54 -308q119 225 301 267l-4 141l119 -1q0 -2 3 -135q119 -16 186 -97q66 -81 66 -201zM791 398q0 148 -132 178q3 -125 3 -178q0 -102 -14 -188q71 16 107 66t36 122z" />
    <glyph glyph-name="uni3087" unicode="&#x3087;" 
d="M806 43l-79 -85q-81 73 -149 112q-39 -116 -174 -116q-70 0 -121 35q-61 41 -61 110q0 68 54 105q47 32 116 32q33 0 76 -7q-17 216 -18 405h117v-167q108 13 197 42v-117q-82 -28 -193 -39l12 -160q108 -47 223 -150zM472 112q-56 13 -78 13q-59 0 -59 -26q0 -15 30 -24
q23 -8 39 -8q55 0 68 45z" />
    <glyph glyph-name="uni3088" unicode="&#x3088;" 
d="M884 47l-84 -90q-110 98 -207 149q-42 -161 -221 -161q-89 0 -154 44q-74 49 -74 133q0 86 68 130q56 37 144 37q52 0 117 -13q-24 291 -27 543h128v-226q146 15 263 54l1 -124q-111 -38 -258 -51q4 -54 13 -181l4 -53q136 -57 287 -191zM480 151q-67 18 -124 18
q-93 0 -93 -47q0 -27 43 -44q34 -12 66 -12q96 0 108 85z" />
    <glyph glyph-name="uni3089" unicode="&#x3089;" 
d="M641 724l-61 -105q-153 66 -308 68l23 120q168 -1 346 -83zM843 247q0 -150 -170 -233q-130 -64 -311 -68l-51 118q185 6 297 58q113 53 113 125q0 44 -33 69q-29 22 -75 22q-177 0 -320 -219l-114 39q37 221 41 450l119 -17q-1 -92 -15 -246q140 118 289 118
q98 0 163 -60q67 -60 67 -156z" />
    <glyph glyph-name="uni308A" unicode="&#x308a;" 
d="M553 301q-68 -77 -142 -77q-83 0 -123 74q-32 59 -32 148q0 177 34 355h125q-38 -226 -38 -355q0 -97 34 -97q22 0 59 43zM768 526q0 -281 -62 -399q-82 -154 -337 -202l-45 114q213 38 273 148q49 88 49 339q0 208 -5 285l121 2q6 -93 6 -287z" />
    <glyph glyph-name="uni308B" unicode="&#x308b;" 
d="M872 218q0 -131 -103 -217q-98 -79 -233 -79q-94 0 -164 46q-82 52 -82 138q0 62 42 101t105 39q78 0 138 -49q43 -35 99 -116q80 53 80 137q0 72 -53 110q-47 35 -119 35q-102 0 -189 -57q-52 -34 -160 -143l-86 82q155 180 419 427q-146 -19 -280 -19v121q254 0 411 51
l96 -104q-117 -103 -272 -243q42 6 61 6q124 0 205 -71q85 -74 85 -195zM550 42q-55 83 -113 83q-29 0 -29 -19q0 -14 22 -34q36 -31 120 -30z" />
    <glyph glyph-name="uni308C" unicode="&#x308c;" 
d="M962 201q-39 -103 -71 -149q-52 -75 -123 -75q-131 0 -131 171q0 64 20 193q20 130 20 195q0 19 -11 19q-48 0 -145 -76q-91 -72 -183 -176q-2 -80 -2 -115q0 -20 3 -122q4 -106 4 -137h-116q0 12 -7 230q-53 -69 -89 -123l-69 104q86 115 164 273q2 24 5 86
q-51 -9 -146 -20l-4 112q89 11 160 26q12 126 25 216l115 -20q-11 -75 -21 -159l7 2l68 -62q-14 -24 -51 -92q187 174 283 174q61 0 96 -39t35 -101q0 -37 -20 -188q-21 -168 -21 -200q0 -44 20 -44q19 0 84 163z" />
    <glyph glyph-name="uni308D" unicode="&#x308d;" 
d="M885 230q0 -150 -137 -224q-111 -61 -276 -61q-12 0 -56 3l-37 2l-48 127q127 -6 151 -6q93 0 173 32q107 44 107 127q0 66 -59 99q-46 27 -115 27q-122 0 -210 -59q-73 -48 -157 -165l-85 83q135 190 404 454q-166 -21 -259 -21v119q236 0 410 50l86 -89
q-99 -85 -274 -260q55 12 85 12q124 0 206 -63q91 -68 91 -187z" />
    <glyph glyph-name="uni308E" unicode="&#x308e;" 
d="M855 239q0 -188 -278 -281l-75 103q241 68 241 178q0 47 -29 75q-30 27 -78 27q-94 0 -217 -98q-1 -40 -1 -103q0 -111 14 -203h-111q-11 58 -11 189q-27 -32 -91 -110l-51 125q98 116 148 205q0 13 1 28q-51 -11 -119 -19l-10 112q88 10 138 20q3 68 12 162l109 -17
q-5 -48 -10 -108l70 -59l-44 -67q108 56 186 56q91 0 149 -61q57 -62 57 -154z" />
    <glyph glyph-name="uni308F" unicode="&#x308f;" 
d="M948 302q0 -230 -353 -342l-69 110q301 83 301 232q0 73 -32 114q-37 45 -106 45q-149 0 -310 -140q-4 -118 -4 -153q0 -155 14 -239h-116q-14 83 -14 239v32q-34 -39 -124 -151l-61 119q130 170 194 282l2 58q-75 -13 -160 -22l-15 113q118 13 181 27q9 137 19 209
l114 -18q-7 -47 -14 -153l21 7l64 -70q-46 -58 -101 -135q179 116 310 116q119 0 191 -81q68 -77 68 -199z" />
    <glyph glyph-name="uni3090" unicode="&#x3090;" 
d="M923 224q0 -120 -73 -207q-78 -93 -195 -93q-77 0 -134 41q-62 45 -62 122q0 64 43 103q43 40 103 40q81 0 182 -91q18 44 18 85q0 101 -70 152q-61 46 -167 46q-176 -458 -330 -458q-67 0 -105 60q-33 51 -33 119q0 155 123 266q105 94 259 123q31 85 53 153
q-113 -23 -267 -23v119q200 0 335 53l73 -86q-30 -105 -65 -207q141 -9 227 -95q85 -87 85 -222zM706 53q-61 58 -101 58q-28 0 -28 -24q0 -22 30 -34q24 -11 48 -11q21 0 51 11zM431 396q-91 -35 -142 -88q-70 -72 -70 -165q0 -61 19 -61q24 0 75 79q56 86 118 235z" />
    <glyph glyph-name="uni3091" unicode="&#x3091;" 
d="M946 6l-94 -71q-89 131 -208 213l73 88q118 -78 229 -230zM827 428q0 -95 -89 -151q-78 -49 -181 -49q-31 0 -71 8q-24 -13 -86 -47q49 -21 75 -65q12 -23 39 -68q9 -14 15 -14q22 0 62 98l82 -86q-64 -135 -146 -135q-50 0 -86 34q-27 26 -55 83q-24 49 -49 49
q-43 0 -79 -33q-36 -34 -95 -126l-84 80q60 110 121 169q56 56 167 118q-28 34 -28 67q0 52 37 83q34 29 86 29q53 0 90 -28q39 -32 39 -83q0 1 -3 -22q43 4 80 27q43 26 43 62q0 41 -48 70q-45 26 -96 26q-112 0 -193 -52q-56 -34 -154 -141l-78 77q97 103 321 279
q-67 -10 -179 -24v119q172 6 368 54l86 -86q-89 -59 -178 -124h24q95 1 166 -50q77 -56 77 -148zM486 359q0 26 -22 26q-28 0 -28 -26q0 -8 10 -18q11 -10 22 -12q18 19 18 30z" />
    <glyph glyph-name="uni3092" unicode="&#x3092;" 
d="M922 361q-91 -24 -291 -85q0 -27 -1 -86q-1 -60 -1 -89h-119q0 22 1 63q1 51 1 66q-132 -63 -132 -110q0 -57 178 -57q41 0 237 13l4 -124q-139 -9 -241 -9q-296 0 -296 177q0 132 249 238q-12 44 -64 44q-68 0 -130 -49q-44 -35 -124 -142l-90 91l110 126q62 74 108 137
q-55 1 -150 8v117q79 -7 154 -7q15 0 70 4q31 63 58 134l115 -32q-16 -43 -37 -89q143 15 234 35v-120q-106 -23 -299 -40q-10 -17 -39 -59q20 4 34 4q127 0 162 -120q76 25 243 68z" />
    <glyph glyph-name="uni3093" unicode="&#x3093;" 
d="M942 293q-65 -191 -118 -263q-74 -103 -186 -103q-78 0 -121 57q-38 51 -38 130v108q0 62 -26 62q-50 0 -96 -38q-42 -35 -64 -84q-32 -70 -100 -238l-112 42q171 461 428 859l106 -57q-112 -173 -217 -378q42 14 71 14q130 0 130 -167v-123q0 -67 39 -67q52 0 97 67
q44 68 105 252z" />
    <glyph glyph-name="uni30A1" unicode="&#x30a1;" 
d="M808 480q-156 -158 -260 -230q-17 -92 -74 -162q-48 -58 -142 -119l-76 83q116 75 154 151q34 72 34 215h114l-1 -27q30 23 67 63h-405v109h521z" />
    <glyph glyph-name="uni30A2" unicode="&#x30a2;" 
d="M890 624q-169 -171 -339 -286q-22 -131 -91 -221q-60 -78 -181 -156l-83 88q147 95 195 190q47 96 47 287h123v-29q51 39 121 99h-544v123h674z" />
    <glyph glyph-name="uni30A3" unicode="&#x30a3;" 
d="M782 562q-54 -86 -136 -167v-447h-112v346q-112 -89 -222 -151l-71 90q308 176 446 391z" />
    <glyph glyph-name="uni30A4" unicode="&#x30a4;" 
d="M851 738q-72 -112 -174 -212v-586h-122v477q-149 -121 -307 -211l-76 95q167 95 316 221q170 143 261 282z" />
    <glyph glyph-name="uni30A5" unicode="&#x30a5;" 
d="M763 504q-8 -252 -75 -358q-73 -118 -288 -190l-56 101q171 57 231 126q57 64 70 207h-272v-156h-111v270h185v115h111v-115h205z" />
    <glyph glyph-name="uni30A6" unicode="&#x30a6;" 
d="M833 643q-12 -317 -96 -453q-94 -154 -366 -243l-63 107q224 73 302 167q79 94 96 298h-392v-206h-121v330h247v153h122v-153h271z" />
    <glyph glyph-name="uni30A7" unicode="&#x30a7;" 
d="M816 104h-608v110h248v207h-192v111h496v-111h-192v-207h248v-110z" />
    <glyph glyph-name="uni30A8" unicode="&#x30a8;" 
d="M903 99h-782v119h330v310h-253v120h628v-120h-253v-310h330v-119z" />
    <glyph glyph-name="uni30A9" unicode="&#x30a9;" 
d="M823 370h-178v-236q0 -92 -41 -131q-40 -38 -131 -39l-44 114q58 0 48 0q35 1 44 14q9 12 9 42v123q-115 -130 -263 -213l-71 91q163 92 279 235h-242v115h297v135h115v-135h178v-115z" />
    <glyph glyph-name="uni30AA" unicode="&#x30aa;" 
d="M909 495h-238v-328q0 -110 -48 -160q-48 -51 -156 -52l-48 124h66q43 4 54 28q8 18 8 60v203q-158 -189 -361 -303l-75 96q214 120 376 332h-334v124h394v178h124v-178h238v-124z" />
    <glyph glyph-name="uni30AB" unicode="&#x30ab;" 
d="M867 542q0 -103 -14 -340q-5 -87 -59 -146q-55 -60 -140 -60q-16 0 -71 4l-31 130q93 -11 102 -11q71 0 76 89q3 46 13 273h-178q-28 -176 -110 -293q-73 -106 -227 -212l-75 95q130 91 189 170q71 94 99 240h-246v123h262q5 69 5 171h122q0 -99 -4 -171h287v-62z" />
    <glyph glyph-name="uni30AC" unicode="&#x30ac;" 
d="M986 728l-72 -32q-26 71 -63 126l69 33q33 -55 66 -127zM901 670l-73 -34q-25 69 -63 125l70 36q33 -55 66 -127zM867 542q0 -103 -14 -340q-5 -87 -59 -146q-55 -60 -140 -60q-16 0 -71 4l-31 130q93 -11 102 -11q71 0 76 89q3 46 13 273h-178q-28 -176 -110 -293
q-73 -106 -227 -212l-75 95q130 91 189 170q71 94 99 240h-246v123h262q5 69 5 171h122q0 -99 -4 -171h287v-62z" />
    <glyph glyph-name="uni30AD" unicode="&#x30ad;" 
d="M901 247l-315 -12l23 -298l-122 -11l-25 305l-334 -14l-5 124l330 13l-12 137l-268 -6l-4 123l263 8l-16 197l123 12l16 -206l285 7l3 -124l-279 -7l11 -136l321 11z" />
    <glyph glyph-name="uni30AE" unicode="&#x30ae;" 
d="M992 734l-71 -33q-27 71 -64 126l69 34q33 -56 66 -127zM907 675l-72 -34q-26 69 -64 125l70 36q33 -55 66 -127zM901 247l-315 -12l23 -298l-122 -11l-25 305l-334 -14l-5 124l330 13l-12 137l-268 -6l-4 123l263 8l-16 197l123 12l16 -206l285 7l3 -124l-279 -7
l11 -136l321 11z" />
    <glyph glyph-name="uni30AF" unicode="&#x30af;" 
d="M852 593q-58 -263 -177 -412q-119 -150 -360 -260l-72 103q191 85 297 197q117 122 172 318h-258q-83 -144 -198 -251l-88 86q93 88 169 216q75 125 112 251l110 -55q-18 -65 -43 -123h264z" />
    <glyph glyph-name="uni30B0" unicode="&#x30b0;" 
d="M994 742l-71 -33q-27 72 -64 126l69 34q34 -56 66 -127zM909 683l-72 -33q-26 68 -64 125l70 35q34 -55 66 -127zM852 593q-58 -263 -177 -412q-119 -150 -360 -260l-72 103q191 85 297 197q117 122 172 318h-258q-83 -144 -198 -251l-88 86q93 88 169 216
q75 125 112 251l110 -55q-18 -65 -43 -123h264z" />
    <glyph glyph-name="uni30B1" unicode="&#x30b1;" 
d="M932 494h-252q-9 -220 -88 -346q-68 -109 -236 -203l-81 91q149 84 205 169q68 104 77 289h-220q-70 -129 -159 -214l-90 84q163 157 247 454l118 -34q-26 -91 -57 -166h536v-124z" />
    <glyph glyph-name="uni30B2" unicode="&#x30b2;" 
d="M992 738l-71 -33q-27 72 -64 126l69 34q33 -56 66 -127zM907 679l-72 -33q-26 68 -64 124l70 36q33 -55 66 -127zM932 494h-252q-9 -220 -88 -346q-68 -109 -236 -203l-81 91q149 84 205 169q68 104 77 289h-220q-70 -129 -159 -214l-90 84q163 157 247 454l118 -34
q-26 -91 -57 -166h536v-124z" />
    <glyph glyph-name="uni30B3" unicode="&#x30b3;" 
d="M812 73h-600v121h479v337h-472v120h593v-578z" />
    <glyph glyph-name="uni30B4" unicode="&#x30b4;" 
d="M998 740l-71 -33q-27 72 -64 126l69 34q34 -56 66 -127zM913 681l-72 -33q-26 68 -64 124l70 36q34 -55 66 -127zM812 73h-600v121h479v337h-472v120h593v-578z" />
    <glyph glyph-name="uni30B5" unicode="&#x30b5;" 
d="M933 452h-216v-51q0 -313 -318 -450l-71 100q266 115 266 350v51h-174v-241h-124v241h-205v123h205v195h124v-195h174v194h123v-194h216v-123z" />
    <glyph glyph-name="uni30B6" unicode="&#x30b6;" 
d="M986 705l-72 -33q-26 72 -63 126l69 34q33 -55 66 -127zM901 647l-73 -34q-25 68 -63 125l70 36q33 -56 66 -127zM933 452h-216v-51q0 -313 -318 -450l-71 100q266 115 266 350v51h-174v-241h-124v241h-205v123h205v195h124v-195h174v194h123v-194h216v-123z" />
    <glyph glyph-name="uni30B7" unicode="&#x30b7;" 
d="M524 646l-74 -96q-90 72 -220 128l71 103q110 -43 223 -135zM866 464q-201 -343 -645 -461l-41 117q414 112 600 432zM435 422l-76 -96q-81 60 -203 119l64 104q123 -59 215 -127z" />
    <glyph glyph-name="uni30B8" unicode="&#x30b8;" 
d="M873 680l-71 -32q-27 71 -64 126l69 33q34 -55 66 -127zM788 622l-72 -34q-26 69 -64 125l70 36q34 -55 66 -127zM524 646l-74 -96q-90 72 -220 128l71 103q110 -43 223 -135zM866 464q-201 -343 -645 -461l-41 117q414 112 600 432zM435 422l-76 -96q-81 60 -203 119
l64 104q123 -59 215 -127z" />
    <glyph glyph-name="uni30B9" unicode="&#x30b9;" 
d="M892 46l-90 -87q-177 211 -267 292q-143 -157 -332 -279l-70 100q312 199 475 490h-415v121h500l76 -73q-72 -155 -154 -265q98 -85 277 -299z" />
    <glyph glyph-name="uni30BA" unicode="&#x30ba;" 
d="M959 719l-71 -33q-27 72 -64 126l69 34q34 -55 66 -127zM874 661l-72 -34q-26 69 -64 125l70 36q34 -55 66 -127zM892 46l-90 -87q-177 211 -267 292q-143 -157 -332 -279l-70 100q312 199 475 490h-415v121h500l76 -73q-72 -155 -154 -265q98 -85 277 -299z" />
    <glyph glyph-name="uni30BB" unicode="&#x30bb;" 
d="M900 521q-125 -159 -319 -298l-83 92q110 79 195 157l-247 -25v-258q0 -36 13 -46q13 -11 56 -11q55 0 162 4q113 3 162 3l2 -123q-50 0 -163 -4q-108 -3 -163 -3q-191 0 -191 180v245l-179 -20l-20 123l199 20v232h122v-219l379 40z" />
    <glyph glyph-name="uni30BC" unicode="&#x30bc;" 
d="M966 719l-72 -33q-27 72 -64 126l69 34q34 -55 67 -127zM881 661l-73 -34q-26 69 -64 125l70 36q34 -55 67 -127zM900 521q-125 -159 -319 -298l-83 92q110 79 195 157l-247 -25v-258q0 -36 13 -46q13 -11 56 -11q55 0 162 4q113 3 162 3l2 -123q-50 0 -163 -4
q-108 -3 -163 -3q-191 0 -191 180v245l-179 -20l-20 123l199 20v232h122v-219l379 40z" />
    <glyph glyph-name="uni30BD" unicode="&#x30bd;" 
d="M851 684q-34 -292 -136 -443q-95 -140 -341 -282l-78 96q229 132 313 253q92 133 124 406zM439 461l-105 -65q-87 153 -165 253l101 65q106 -134 169 -253z" />
    <glyph glyph-name="uni30BE" unicode="&#x30be;" 
d="M966 744l-72 -33q-27 72 -64 126l69 34q34 -56 67 -127zM862 713l-44 -20l33 -9q-34 -292 -136 -443q-95 -140 -341 -282l-78 96q229 132 313 253q92 133 124 406l47 -12q-22 55 -54 102l70 36q33 -55 66 -127zM439 461l-105 -65q-87 153 -165 253l101 65
q106 -134 169 -253z" />
    <glyph glyph-name="uni30BF" unicode="&#x30bf;" 
d="M866 606q-83 -264 -227 -421q-137 -151 -390 -264l-64 106q221 99 342 220q-63 56 -154 129l80 95q65 -54 154 -130q70 98 113 210h-267q-88 -136 -215 -258l-82 90q192 186 309 449l115 -41q-27 -58 -56 -115h273z" />
    <glyph glyph-name="uni30C0" unicode="&#x30c0;" 
d="M998 736l-71 -33q-27 72 -64 126l69 34q34 -56 66 -127zM901 696l-73 -34q-26 72 -63 126l70 35q33 -56 66 -127zM866 606q-83 -264 -227 -421q-137 -151 -390 -264l-64 106q221 99 342 220q-63 56 -154 129l80 95q65 -54 154 -130q70 98 113 210h-267
q-88 -136 -215 -258l-82 90q192 186 309 449l115 -41q-27 -58 -56 -115h273z" />
    <glyph glyph-name="uni30C1" unicode="&#x30c1;" 
d="M898 354h-316q-20 -274 -342 -411l-66 107q261 110 285 304h-333v124h333v123q-128 -15 -236 -20l-32 120q340 18 570 80l32 -119q-98 -27 -210 -44v-140h315v-124z" />
    <glyph glyph-name="uni30C2" unicode="&#x30c2;" 
d="M1000 581l-71 -33q-27 72 -64 126l69 34q34 -55 66 -127zM904 532l-73 -34q-25 69 -63 125l70 36q33 -55 66 -127zM898 354h-316q-20 -274 -342 -411l-66 107q261 110 285 304h-333v124h333v123q-128 -15 -236 -20l-32 120q340 18 570 80l32 -119q-98 -27 -210 -44v-140
h315v-124z" />
    <glyph glyph-name="uni30C3" unicode="&#x30c3;" 
d="M600 370l-95 -47q-50 110 -109 187l92 56q69 -104 112 -196zM804 531q-37 -242 -129 -368q-92 -125 -293 -206l-60 99q184 71 262 177q76 104 111 330zM424 351l-99 -56q-59 108 -119 175l97 62q57 -64 121 -181z" />
    <glyph glyph-name="uni30C4" unicode="&#x30c4;" 
d="M634 493l-113 -55q-62 135 -130 225l109 64q82 -123 134 -234zM881 685q-48 -309 -167 -472q-119 -162 -372 -264l-66 107q235 90 338 232q104 143 149 429zM389 460l-108 -58q-72 132 -142 210l105 66q67 -77 145 -218z" />
    <glyph glyph-name="uni30C5" unicode="&#x30c5;" 
d="M1007 744l-72 -33q-27 72 -64 126l69 34q34 -56 67 -127zM634 493l-113 -55q-62 135 -130 225l109 64q82 -123 134 -234zM905 706l-37 -17l13 -4q-48 -309 -167 -472q-119 -162 -372 -264l-66 107q235 90 338 232q104 143 149 429l58 -15q-20 49 -52 96l70 35
q33 -55 66 -127zM389 460l-108 -58q-72 132 -142 210l105 66q67 -77 145 -218z" />
    <glyph glyph-name="uni30C6" unicode="&#x30c6;" 
d="M787 609h-550v123h550v-123zM889 370h-293q-22 -170 -98 -267q-72 -90 -231 -163l-71 105q150 68 206 137q53 63 71 188h-339v123h755v-123z" />
    <glyph glyph-name="uni30C7" unicode="&#x30c7;" 
d="M1009 729l-72 -32q-27 71 -64 126l69 33q34 -55 67 -127zM914 686l-72 -33q-27 71 -64 126l70 34q34 -55 66 -127zM787 609h-550v123h550v-123zM889 370h-293q-22 -170 -98 -267q-72 -90 -231 -163l-71 105q150 68 206 137q53 63 71 188h-339v123h755v-123z" />
    <glyph glyph-name="uni30C8" unicode="&#x30c8;" 
d="M821 300l-81 -98q-101 100 -233 180v-441h-118v856h118v-273q189 -100 314 -224z" />
    <glyph glyph-name="uni30C9" unicode="&#x30c9;" 
d="M885 655l-72 -33q-27 72 -63 126l68 34q34 -56 67 -127zM800 596l-73 -33q-26 68 -63 124l69 36q34 -55 67 -127zM821 300l-81 -98q-101 100 -233 180v-441h-118v856h118v-273q189 -100 314 -224z" />
    <glyph glyph-name="uni30CA" unicode="&#x30ca;" 
d="M902 427h-311q-9 -184 -79 -288q-70 -105 -233 -182l-90 96q145 63 202 137q66 82 76 237h-345v123h347q1 61 6 227l123 -3q-4 -120 -6 -224h310v-123z" />
    <glyph glyph-name="uni30CB" unicode="&#x30cb;" 
d="M768 492h-512v119h512v-119zM863 106h-702v121h702v-121z" />
    <glyph glyph-name="uni30CC" unicode="&#x30cc;" 
d="M873 116l-87 -87q-66 80 -196 185q-137 -143 -361 -262l-81 98q217 111 346 241q-118 88 -239 159l86 90q102 -59 231 -156q66 90 113 201h-473v123h555l73 -55q-69 -203 -170 -343q130 -106 203 -194z" />
    <glyph glyph-name="uni30CD" unicode="&#x30cd;" 
d="M931 162l-83 -94q-112 112 -240 206l80 86q133 -88 243 -198zM808 580q-125 -139 -248 -240v-423h-121v333q-118 -80 -280 -164l-66 106q320 167 515 353h-440v121h269v173h120v-173h176z" />
    <glyph glyph-name="uni30CE" unicode="&#x30ce;" 
d="M791 683q-62 -267 -169 -418q-98 -138 -315 -284l-77 99q203 138 295 271q96 136 150 374z" />
    <glyph glyph-name="uni30CF" unicode="&#x30cf;" 
d="M972 140l-114 -61q-40 124 -128 269q-85 140 -177 239l103 70q100 -107 185 -244q90 -145 131 -273zM427 618q-65 -309 -281 -535l-96 83q203 208 262 494z" />
    <glyph glyph-name="uni30D0" unicode="&#x30d0;" 
d="M976 658l-72 -33q-26 72 -63 126l68 34q34 -56 67 -127zM891 599l-73 -33q-25 68 -63 125l69 35q34 -55 67 -127zM972 140l-114 -61q-40 124 -128 269q-85 140 -177 239l103 70q100 -107 185 -244q90 -145 131 -273zM427 618q-65 -309 -281 -535l-96 83q203 208 262 494z
" />
    <glyph glyph-name="uni30D1" unicode="&#x30d1;" 
d="M946 686q0 -42 -30 -71q-29 -30 -71 -30t-72 30q-30 29 -30 71t30 72t72 30t71 -30q30 -30 30 -72zM972 140l-114 -61q-40 124 -128 269q-85 140 -177 239l103 70q100 -107 185 -244q90 -145 131 -273zM427 618q-65 -309 -281 -535l-96 83q203 208 262 494zM890 686
q0 20 -13 32q-13 14 -32 14t-32 -14q-13 -13 -13 -32q0 -17 13 -31q14 -14 32 -14t32 14q13 13 13 31z" />
    <glyph glyph-name="uni30D2" unicode="&#x30d2;" 
d="M807 19q-201 -12 -333 -12q-128 0 -184 34q-73 44 -73 163v576h121v-271q192 17 410 60v-124q-219 -43 -410 -59v-182q0 -53 40 -67q20 -8 96 -8q83 0 333 16v-126z" />
    <glyph glyph-name="uni30D3" unicode="&#x30d3;" 
d="M936 686l-65 -30q-24 67 -58 119l61 31q32 -52 62 -120zM830 647l-64 -31q-25 67 -58 119l61 31q32 -52 61 -119zM807 19q-201 -12 -333 -12q-128 0 -184 34q-73 44 -73 163v576h121v-271q192 17 410 60v-124q-219 -43 -410 -59v-182q0 -53 40 -67q20 -8 96 -8
q83 0 333 16v-126z" />
    <glyph glyph-name="uni30D4" unicode="&#x30d4;" 
d="M926 699q0 -42 -30 -72t-72 -30t-71 30q-30 30 -30 72t30 71q29 30 71 30t72 -30q30 -29 30 -71zM807 19q-201 -12 -333 -12q-128 0 -184 34q-73 44 -73 163v576h121v-271q192 17 410 60v-124q-219 -43 -410 -59v-182q0 -53 40 -67q20 -8 96 -8q83 0 333 16v-126z
M869 699q0 19 -13 31q-12 14 -32 14q-18 0 -31 -14q-14 -13 -14 -31t14 -32q14 -13 31 -13q19 0 32 13t13 32z" />
    <glyph glyph-name="uni30D5" unicode="&#x30d5;" 
d="M856 704q-20 -305 -128 -465q-101 -151 -354 -279l-85 104q204 92 296 191q110 120 139 326h-556v123h688z" />
    <glyph glyph-name="uni30D6" unicode="&#x30d6;" 
d="M1001 754l-64 -31q-25 68 -58 119l61 32q32 -52 61 -120zM896 714l-40 -19q-21 -297 -128 -456q-101 -151 -354 -279l-85 104q204 92 296 191q110 120 139 326h-556v123h655q-22 56 -50 98l62 32q31 -52 61 -120z" />
    <glyph glyph-name="uni30D7" unicode="&#x30d7;" 
d="M1012 768q0 -42 -30 -71q-30 -30 -72 -30q-29 0 -55 16q-22 -288 -127 -444q-101 -151 -354 -279l-85 104q204 92 296 191q110 120 139 326h-556v123h663q-22 28 -22 64q0 42 30 72q29 30 71 30t72 -30t30 -72zM955 768q0 20 -13 32q-12 13 -32 13q-18 0 -31 -13
q-14 -13 -14 -32q0 -17 14 -31t31 -14q19 0 32 14q13 13 13 31z" />
    <glyph glyph-name="uni30D8" unicode="&#x30d8;" 
d="M944 162l-94 -92l-374 387q-35 36 -48 36t-44 -33q-72 -75 -215 -223l-89 85q118 123 206 213q9 9 28 30q65 65 108 65q38 0 80 -31q19 -14 64 -59z" />
    <glyph glyph-name="uni30D9" unicode="&#x30d9;" 
d="M866 592l-64 -30q-24 64 -60 118l63 32q32 -52 61 -120zM761 552l-65 -30q-23 64 -59 118l62 33q30 -49 62 -121zM944 162l-94 -92l-374 387q-35 36 -48 36t-44 -33q-72 -75 -215 -223l-89 85q118 123 206 213q9 9 28 30q65 65 108 65q38 0 80 -31q19 -14 64 -59z" />
    <glyph glyph-name="uni30DA" unicode="&#x30da;" 
d="M858 618q0 -42 -30 -72q-29 -30 -71 -30t-72 30t-30 72t30 72q30 29 72 29t71 -29q30 -30 30 -72zM944 162l-94 -92l-374 387q-35 36 -48 36t-44 -33q-72 -75 -215 -223l-89 85q118 123 206 213q9 9 28 30q65 65 108 65q38 0 80 -31q19 -14 64 -59zM802 618q0 19 -14 33
q-12 12 -31 12t-32 -13q-13 -14 -13 -32t13 -31q14 -14 32 -14t31 13q14 13 14 32z" />
    <glyph glyph-name="uni30DB" unicode="&#x30db;" 
d="M963 150l-83 -98q-163 141 -258 330l105 65q83 -165 236 -297zM884 499h-326v-544h-123v544h-315v123h315v172h123v-172h326v-123zM376 398q-27 -71 -98 -188q-74 -121 -127 -172l-91 85q50 48 114 155q62 99 88 171z" />
    <glyph glyph-name="uni30DC" unicode="&#x30dc;" 
d="M963 727l-65 -30q-24 64 -59 118l62 32q32 -52 62 -120zM857 687l-64 -30q-24 64 -60 119l63 32q29 -49 61 -121zM963 150l-83 -98q-163 141 -258 330l105 65q83 -165 236 -297zM884 499h-326v-544h-123v544h-315v123h315v172h123v-172h326v-123zM376 398
q-27 -71 -98 -188q-74 -121 -127 -172l-91 85q50 48 114 155q62 99 88 171z" />
    <glyph glyph-name="uni30DD" unicode="&#x30dd;" 
d="M938 739q0 -42 -30 -72q-29 -30 -71 -30t-72 30t-30 72t30 71q30 30 72 30t71 -30q30 -29 30 -71zM963 150l-83 -98q-163 141 -258 330l105 65q83 -165 236 -297zM884 499h-326v-544h-123v544h-315v123h315v172h123v-172h326v-123zM376 398q-27 -71 -98 -188
q-74 -121 -127 -172l-91 85q50 48 114 155q62 99 88 171zM882 739q0 19 -14 32q-12 13 -31 13t-32 -14q-13 -13 -13 -31t13 -31q14 -14 32 -14t31 13q14 13 14 32z" />
    <glyph glyph-name="uni30DE" unicode="&#x30de;" 
d="M884 547q-162 -240 -309 -391q63 -57 98 -93l-88 -85q-118 123 -330 299l80 91q81 -68 150 -129q109 113 217 262h-559v123h657z" />
    <glyph glyph-name="uni30DF" unicode="&#x30df;" 
d="M741 665l-41 -118q-173 86 -414 117l36 121q242 -33 419 -120zM710 394l-46 -116q-183 81 -368 108l36 120q192 -28 378 -112zM809 47l-55 -111q-212 98 -540 154l51 116q317 -54 544 -159z" />
    <glyph glyph-name="uni30E0" unicode="&#x30e0;" 
d="M931 79l-106 -65q-23 54 -57 112q-98 -16 -329 -40q-215 -21 -311 -25l-35 122q47 2 113 7q53 101 133 279q89 199 127 315l114 -48q-69 -212 -228 -533q225 21 344 37q-73 111 -131 172l100 75q68 -74 148 -196t118 -212z" />
    <glyph glyph-name="uni30E1" unicode="&#x30e1;" 
d="M842 245l-83 -90q-57 58 -125 119q-126 -170 -380 -327l-73 100q242 150 358 308q-105 84 -208 148l77 101q89 -57 196 -143q66 126 114 315l109 -53q-54 -211 -126 -344q77 -66 141 -134z" />
    <glyph glyph-name="uni30E2" unicode="&#x30e2;" 
d="M896 339l-391 -8v-164q0 -24 14 -32q9 -6 36 -6q142 0 287 24v-135q-156 -11 -287 -11q-88 0 -129 34q-44 39 -44 126v162l-254 -5v122l254 6v152l-215 -12v122l620 34v-123l-282 -15v-156l391 6v-121z" />
    <glyph glyph-name="uni30E3" unicode="&#x30e3;" 
d="M873 415q-83 -105 -248 -264l-74 84q70 64 127 131l-193 -25l55 -413l-117 -16l-53 414l-203 -27l-15 117l202 26l-26 199l115 16l28 -200l327 43z" />
    <glyph glyph-name="uni30E4" unicode="&#x30e4;" 
d="M931 524q-148 -187 -321 -343l-83 93q107 95 204 204l-257 -34l64 -491l-122 -16l-65 490l-240 -31l-16 124l240 30l-31 237l122 16l32 -237l390 52z" />
    <glyph glyph-name="uni30E5" unicode="&#x30e5;" 
d="M819 97h-614v110h361l11 215h-293v111h411l-15 -326h139v-110z" />
    <glyph glyph-name="uni30E6" unicode="&#x30e6;" 
d="M907 90h-790v121h482l14 319h-390v121h518l-19 -440h185v-121z" />
    <glyph glyph-name="uni30E7" unicode="&#x30e7;" 
d="M737 52h-450v112h340v87h-324v113h324v89h-336v113h446v-514z" />
    <glyph glyph-name="uni30E8" unicode="&#x30e8;" 
d="M802 45h-580v121h454v146h-430v122h430v148h-447v121h573v-658z" />
    <glyph glyph-name="uni30E9" unicode="&#x30e9;" 
d="M795 616h-565v123h565v-123zM856 527q-34 -268 -148 -387q-91 -95 -338 -187l-56 113q183 71 257 130q98 76 134 207h-535v124h686z" />
    <glyph glyph-name="uni30EA" unicode="&#x30ea;" 
d="M738 341q0 -149 -92 -252q-82 -90 -257 -157l-60 115q293 102 293 294v419h116v-419zM403 240h-117v502h117v-502z" />
    <glyph glyph-name="uni30EB" unicode="&#x30eb;" 
d="M946 406q-134 -254 -363 -415l-86 49v726h125v-593q129 120 229 312zM418 711q0 -293 -32 -399q-48 -164 -228 -283l-83 93q111 74 153 138q46 69 59 195q8 83 8 256h123z" />
    <glyph glyph-name="uni30EC" unicode="&#x30ec;" 
d="M843 459q-131 -191 -251 -286q-107 -84 -326 -184l-82 54v695h121v-593q161 80 258 169q87 80 193 232z" />
    <glyph glyph-name="uni30ED" unicode="&#x30ed;" 
d="M807 89h-590v570h590v-570zM683 209v330h-341v-330h341z" />
    <glyph glyph-name="uni30EE" unicode="&#x30ee;" 
d="M757 489q0 -226 -91 -348q-72 -97 -263 -179l-66 101q171 68 228 135q68 78 78 233h-263v-174h-113v288h490v-56z" />
    <glyph glyph-name="uni30EF" unicode="&#x30ef;" 
d="M825 637q0 -298 -116 -453q-93 -123 -337 -229l-73 109q214 84 295 179q97 113 108 333h-381v-232h-122v355h626v-62z" />
    <glyph glyph-name="uni30F0" unicode="&#x30f0;" 
d="M914 201h-250v-268h-121v268h-433v122h135v193h-86v120h384v181h121v-181h209v-120h-209v-193h250v-122zM543 323v193h-177v-193h177z" />
    <glyph glyph-name="uni30F1" unicode="&#x30f1;" 
d="M906 73h-788v129h303v290h132v-25l97 80h-461v129h627l86 -92l-349 -284v-98h353v-129z" />
    <glyph glyph-name="uni30F2" unicode="&#x30f2;" 
d="M836 662q0 -267 -101 -423q-117 -181 -410 -270l-60 112q161 49 243 104q117 77 167 209h-478v122h508q6 46 8 84h-525v121h648v-59z" />
    <glyph glyph-name="uni30F3" unicode="&#x30f3;" 
d="M434 593l-69 -101q-84 75 -211 138l64 105q131 -67 216 -142zM870 578q-106 -228 -224 -337q-153 -141 -443 -214l-50 114q249 63 376 166q131 105 237 334z" />
    <glyph glyph-name="uni30F4" unicode="&#x30f4;" 
d="M985 737l-72 -33q-26 72 -63 126l69 34q33 -56 66 -127zM884 697l-73 -34q-26 69 -63 125l69 36q34 -56 67 -127zM833 643q-12 -317 -96 -453q-94 -154 -366 -243l-63 107q224 73 302 167q79 94 96 298h-392v-206h-121v330h247v153h122v-153h271z" />
    <glyph glyph-name="uni30F5" unicode="&#x30f5;" 
d="M792 424q0 -54 -13 -257q-4 -70 -47 -116q-43 -47 -112 -47q-25 0 -62 3l-29 121q84 -11 91 -11q45 0 54 109q2 70 3 142h-115q-23 -133 -89 -223q-57 -79 -175 -161l-70 89q98 69 141 121q55 69 78 174h-183v115h197q4 63 4 128h113q0 -67 -4 -128h218v-59z" />
    <glyph glyph-name="uni30F6" unicode="&#x30f6;" 
d="M842 370h-191q-9 -160 -65 -250t-192 -167l-76 86q116 66 160 128q49 72 59 203h-150q-53 -96 -125 -165l-84 78q127 122 194 356l110 -31q-20 -73 -40 -122h400v-116z" />
    <glyph glyph-name="uni3105" unicode="&#x3105;" 
d="M898 579q-3 -309 -13 -417q-22 -209 -190 -209q-66 0 -193 31v140q121 -44 175 -44q43 0 62 34q12 22 17 70q10 83 13 272h-607l-39 94q121 119 207 228l101 -72q-35 -45 -116 -127h583z" />
    <glyph glyph-name="uni3106" unicode="&#x3106;" 
d="M893 40l-94 -93q-86 75 -210 176q-169 -124 -412 -163l-44 121q208 34 341 119q-112 66 -242 125l61 114q145 -67 287 -156q80 91 133 212h-504l-48 113q81 86 163 197l104 -80q-38 -51 -88 -107h467l62 -85q-60 -182 -185 -321q98 -73 209 -172z" />
    <glyph glyph-name="uni3107" unicode="&#x3107;" 
d="M871 22h-130v560q0 15 -15 15h-428q-15 0 -15 -15v-564h-130v616q0 36 25 61q27 24 63 24h528q41 0 72 -23q30 -24 30 -62v-612z" />
    <glyph glyph-name="uni3108" unicode="&#x3108;" 
d="M886 11h-658q-35 0 -61 20q-29 23 -29 56v531q0 35 26 55q24 22 60 22h658v-122h-598q-16 0 -16 -15v-410q0 -14 16 -14h602v-123z" />
    <glyph glyph-name="uni3109" unicode="&#x3109;" 
d="M908 579q0 -269 -15 -402q-26 -224 -190 -224q-77 0 -203 36v137q129 -44 179 -44q61 0 82 70q6 23 12 120q3 41 6 184h-228q-119 -344 -376 -502l-65 103q205 137 309 399h-258l-42 94q144 145 211 233l107 -70q-33 -46 -118 -134h589z" />
    <glyph glyph-name="uni310A" unicode="&#x310a;" 
d="M922 37l-116 -59q-26 59 -49 107l-564 -102l-61 114q149 161 252 357h-276v123h333q32 86 61 185l127 -30q-18 -61 -54 -155h336v-123l-389 1q-73 -161 -203 -327l376 63q-17 27 -63 97l99 69q104 -148 191 -320z" />
    <glyph glyph-name="uni310B" unicode="&#x310b;" 
d="M866 527q-14 -197 -23 -256q-21 -149 -60 -211q-55 -90 -180 -90q-49 0 -182 37l-8 146q130 -57 172 -57q64 0 98 57q26 44 36 126q4 62 9 125h-239l-43 78l83 167h-370v122h474l53 -93l-76 -151h256z" />
    <glyph glyph-name="uni310C" unicode="&#x310c;" 
d="M901 571q2 -235 -11 -378q-10 -112 -48 -165q-47 -67 -150 -67q-67 0 -174 31v133q110 -40 161 -40q47 0 64 35q9 17 16 76q10 86 14 254h-182q-63 -180 -150 -289q-97 -123 -253 -191l-61 104q126 58 206 151q74 85 128 225h-284l-59 99q70 75 213 239l98 -80
q-50 -68 -121 -137h191q16 63 45 192l121 -21q-14 -69 -39 -171h275z" />
    <glyph glyph-name="uni310D" unicode="&#x310d;" 
d="M854 701q-83 -174 -190 -359q91 -143 180 -325l-126 -55q-87 194 -200 380q120 204 210 415zM493 11l-126 -57q-84 201 -199 387q95 187 187 434l120 -52q-74 -203 -163 -372q103 -173 181 -340z" />
    <glyph glyph-name="uni310E" unicode="&#x310e;" 
d="M909 608h-435q-18 -36 -76 -142h417q0 -37 -6 -202q-9 -284 -235 -284q-62 0 -183 27l-3 137q123 -32 180 -32q75 0 101 83q10 33 17 147h-393l-66 91q47 71 105 175h-217v121h794v-121z" />
    <glyph glyph-name="uni310F" unicode="&#x310f;" 
d="M915 615h-548q-6 -243 -26 -346q-30 -151 -131 -309l-107 66q93 151 120 344q17 115 17 367h675v-122z" />
    <glyph glyph-name="uni3110" unicode="&#x3110;" 
d="M804 -43h-126v285q-354 -87 -374 -87q-84 0 -84 75v509h126v-427q0 -15 16 -15q15 0 316 73v401h126v-814z" />
    <glyph glyph-name="uni3111" unicode="&#x3111;" 
d="M761 21l-99 -81q-150 181 -399 392q211 239 359 457l104 -76q-131 -185 -288 -372q178 -153 323 -320z" />
    <glyph glyph-name="uni3112" unicode="&#x3112;" 
d="M911 619h-334v-654h-132v654h-332v122h798v-122z" />
    <glyph glyph-name="uni3113" unicode="&#x3113;" 
d="M913 -4h-802v122h339v158h-202q-41 0 -68 26q-25 28 -25 68v323h129v-279q0 -15 14 -15h152v361h129v-361h140q15 0 15 15v279h129v-323q0 -41 -27 -68q-28 -26 -70 -26h-187v-158h334v-122z" />
    <glyph glyph-name="uni3114" unicode="&#x3114;" 
d="M690 698q-241 -198 -454 -271l-71 112q236 84 439 254zM912 574q-140 -145 -292 -248v-373h-130v286q-133 -78 -301 -150l-81 112q405 150 718 468z" />
    <glyph glyph-name="uni3115" unicode="&#x3115;" 
d="M905 453q0 -37 -31 -67q-30 -28 -68 -28h-427q-17 -141 -51 -221q-38 -86 -129 -181l-86 99q89 95 119 197q21 71 31 228h493q21 0 21 16v131q0 14 -21 14h-545v122h599q39 0 67 -27q28 -28 28 -66v-217z" />
    <glyph glyph-name="uni3116" unicode="&#x3116;" 
d="M862 78q0 -38 -28 -62q-29 -25 -68 -25h-519q-37 0 -61 27t-24 65v576q0 38 28 62q29 25 68 25h519q37 0 61 -29q24 -28 24 -67v-572zM734 129v479q0 16 -15 16h-415q-14 0 -14 -16v-479q0 -16 14 -16h412q18 0 18 16zM686 313l-85 -104q-127 135 -267 232l75 99
q149 -102 277 -227z" />
    <glyph glyph-name="uni3117" unicode="&#x3117;" 
d="M897 753q-3 -413 -49 -471t-120 -58q-39 0 -142 22l-26 136q108 -32 141 -32q32 0 43 18q21 34 23 263h-302v-675h-129v675h-209v122h770z" />
    <glyph glyph-name="uni3118" unicode="&#x3118;" 
d="M910 509h-453q-17 -32 -62 -115h372l76 -81q-42 -154 -106 -232q-69 -85 -212 -137l-65 125q100 25 145 61q51 43 89 142h-435l-38 77q18 29 89 160h-193v122h258q42 88 72 165l120 -43q-19 -44 -55 -122h398v-122z" />
    <glyph glyph-name="uni3119" unicode="&#x3119;" 
d="M916 49l-114 -57l-54 113q-280 -40 -585 -95l-53 92q222 329 353 654l117 -47q-111 -274 -281 -552q127 22 384 63q-17 30 -67 112l108 65q112 -175 192 -348z" />
    <glyph glyph-name="uni311A" unicode="&#x311a;" 
d="M915 667q-157 -144 -354 -312v-398h-128v399q-163 186 -327 325l103 85q148 -135 299 -296q150 132 313 290z" />
    <glyph glyph-name="uni311B" unicode="&#x311b;" 
d="M918 612h-321v-205l-71 -72q-37 4 -77 4q-60 0 -97 -26q-43 -30 -43 -88q0 -65 69 -99q53 -27 123 -27q187 0 259 246l117 -67q-97 -306 -371 -306q-150 0 -238 56q-100 65 -100 190q0 123 88 189q79 59 211 64v141h-361v122h812v-122z" />
    <glyph glyph-name="uni311C" unicode="&#x311c;" 
d="M921 518h-321v-140l-87 -70q-198 -6 -198 -113q0 -51 62 -84q55 -30 126 -30q104 0 160 56q45 44 78 154l120 -62q-48 -141 -125 -205q-84 -71 -226 -71q-131 0 -220 56q-107 65 -107 186q0 210 287 238v85h-367v120h367v153h130v-153h321v-120z" />
    <glyph glyph-name="uni311D" unicode="&#x311d;" 
d="M911 421h-175v-221h-130v221h-207v-314q0 -14 17 -14h449v-124h-507q-36 0 -62 24q-26 26 -26 63v365h-157v123h157l1 220h128v-220h207v220h130v-220h175v-123z" />
    <glyph glyph-name="uni311E" unicode="&#x311e;" 
d="M911 640h-244q-16 -76 -39 -164h162l72 -65q-20 -220 -94 -453l-124 43q59 173 87 350h-141q-119 -295 -387 -384l-77 110q123 40 193 96q76 62 135 178h-209l-72 85q41 121 64 204h-124v123h798v-123zM541 640h-176q-27 -97 -48 -164h183q20 71 41 164z" />
    <glyph glyph-name="uni311F" unicode="&#x311f;" 
d="M925 55l-118 -77q-123 152 -199 300q-77 147 -135 343l-335 -80l-35 123l464 110q60 -235 131 -384q81 -170 227 -335z" />
    <glyph glyph-name="uni3120" unicode="&#x3120;" 
d="M912 40l-126 -56q-20 46 -45 104q-305 -52 -570 -108l-59 117q176 111 342 283q-171 -25 -279 -45l-62 101q166 164 299 349l103 -78q-93 -117 -187 -223q123 15 238 25q85 106 154 203l106 -79q-197 -266 -426 -477q142 26 285 49q-23 45 -49 92l117 60
q86 -147 159 -317z" />
    <glyph glyph-name="uni3121" unicode="&#x3121;" 
d="M918 85l-99 -102q-113 126 -252 233q-96 -91 -187 -137t-222 -70l-50 128q223 36 358 151q-148 85 -298 149l63 108q169 -71 323 -163q63 88 130 236h-509v124h584l80 -84q-83 -213 -183 -344q139 -107 262 -229z" />
    <glyph glyph-name="uni3122" unicode="&#x3122;" 
d="M912 367q-29 -158 -93 -250q-66 -98 -203 -174l-99 108q209 92 243 258h-523l-42 82q51 131 89 236h-171v123h621l64 -87q-29 -75 -89 -232h115zM644 627h-221l-70 -196h214q36 84 77 196z" />
    <glyph glyph-name="uni3123" unicode="&#x3123;" 
d="M903 409q-61 -286 -166 -465l-131 54q101 147 149 361h-581l-54 69q86 154 153 333l127 -29q-54 -150 -103 -251h530z" />
    <glyph glyph-name="uni3124" unicode="&#x3124;" 
d="M911 464h-293v-346q0 -15 16 -15h248v-123h-304q-36 0 -62 26q-26 24 -26 60v259q-59 -132 -125 -215q-66 -82 -167 -156l-95 103q118 74 190 170q71 94 118 237h-291v123h321q15 78 22 182l133 -13q-8 -71 -24 -169h339v-123z" />
    <glyph glyph-name="uni3125" unicode="&#x3125;" 
d="M894 8h-729l-38 90q255 307 392 639l120 -47q-141 -311 -323 -560h578v-122z" />
    <glyph glyph-name="uni3126" unicode="&#x3126;" 
d="M909 -25h-287q-39 0 -64 32q-22 28 -22 70v678h129v-641q0 -16 16 -16h228v-123zM401 755q0 -291 -14 -429q-11 -119 -53 -204q-36 -75 -121 -172l-108 74q76 77 108 137q35 67 48 169q11 92 11 425h129z" />
    <glyph glyph-name="uni3127" unicode="&#x3127;" 
d="M447 -33v781h131v-781h-131z" />
    <glyph glyph-name="uni3128" unicode="&#x3128;" 
d="M905 67l-96 -90l-286 309l-314 -309l-90 97l315 304l-299 292l95 89l293 -290l267 291l94 -90l-272 -293z" />
    <glyph glyph-name="uni3129" unicode="&#x3129;" 
d="M870 96q0 -39 -35 -64q-31 -21 -72 -21h-516q-38 0 -66 24q-27 25 -27 61v619h128v-565q0 -16 16 -16h429q15 0 15 16v565h128v-619z" />
    <glyph glyph-name="uni3220" unicode="&#x3220;" 
d="M175 428q92 -8 184 -8h296q93 0 185 8q-4 -31 -4 -64q0 -30 4 -59q-92 8 -185 8h-296q-92 0 -184 -8q4 29 4 59q0 33 -4 64zM1009 370q0 -277 -201 -491l-47 44q75 84 121 208q46 125 46 239q0 115 -45 240q-46 123 -122 207l47 44q201 -214 201 -491zM263 -77l-48 -44
q-201 214 -201 491t201 491l48 -44q-76 -84 -123 -207q-44 -125 -44 -240q0 -114 45 -239q47 -124 122 -208z" />
    <glyph glyph-name="uni3221" unicode="&#x3221;" 
d="M263 644q90 -8 180 -8h137q90 0 180 8q-4 -29 -4 -60q0 -30 4 -59q-90 8 -180 8h-137q-90 0 -180 -8q4 29 4 59q0 31 -4 60zM191 216q93 -8 185 -8h275q92 0 185 8q-5 -31 -5 -64q0 -30 5 -59q-93 8 -185 8h-275q-92 0 -185 -8q5 29 5 59q0 33 -5 64zM1009 370
q0 -277 -201 -491l-47 44q75 84 121 208q46 125 46 239q0 115 -45 240q-46 123 -122 207l47 44q201 -214 201 -491zM263 -77l-48 -44q-201 214 -201 491t201 491l48 -44q-76 -84 -123 -207q-44 -125 -44 -240q0 -114 45 -239q47 -124 122 -208z" />
    <glyph glyph-name="uni3222" unicode="&#x3222;" 
d="M231 684q91 -8 181 -8h195q90 0 180 8q-4 -29 -4 -60q0 -30 4 -59q-90 8 -180 8h-195q-90 0 -181 -8q5 29 5 59q0 31 -5 60zM280 433q90 -9 180 -9h103q90 0 180 9q-4 -30 -4 -61q0 -30 4 -59q-90 7 -180 7h-103q-90 0 -180 -7q4 29 4 59q0 31 -4 61zM200 168
q90 -8 180 -8h264q89 0 179 8q-4 -29 -4 -60q0 -30 4 -59q-90 8 -179 8h-264q-90 0 -180 -8q4 29 4 59q0 31 -4 60zM1009 370q0 -277 -201 -491l-47 44q75 84 121 208q46 125 46 239q0 115 -45 240q-46 123 -122 207l47 44q201 -214 201 -491zM263 -77l-48 -44
q-201 214 -201 491t201 491l48 -44q-76 -84 -123 -207q-44 -125 -44 -240q0 -114 45 -239q47 -124 122 -208z" />
    <glyph glyph-name="uni3223" unicode="&#x3223;" 
d="M184 706q-24 -45 -44 -96q-44 -125 -44 -240q0 -114 45 -239q20 -50 43 -94q7 80 7 159v369q0 70 -7 141zM186 32q34 -61 77 -109l-48 -44q-201 214 -201 491t201 491l48 -44q-40 -43 -70 -98q79 -7 158 -7h321q80 0 158 7q-30 55 -69 98l47 44q201 -214 201 -491
t-201 -491l-47 44q44 50 78 113q-44 4 -60 4q-15 0 -63 -4q3 30 5 61h-419q2 -33 5 -65q-48 4 -63 4t-58 -4zM840 38q23 44 42 93q46 125 46 239q0 115 -45 240q-20 51 -44 96q-8 -71 -8 -141v-365q0 -81 9 -162zM300 196h424v144q-21 -38 -21 -84q-23 -4 -56 -4
q-120 0 -120 92v269h-44v-109q0 -80 -21 -143q-27 -72 -82 -132q-42 24 -80 37v-70zM628 613v-229q0 -35 48 -35q16 0 48 8v256h-96zM300 296q48 46 65 97q19 54 19 111v109h-84v-317z" />
    <glyph glyph-name="uni3224" unicode="&#x3224;" 
d="M215 701q86 -8 172 -8h241q86 0 172 8q-4 -31 -4 -61q0 -27 4 -56q-86 8 -172 8h-102l-17 -143h62q80 0 161 3q-4 -80 -4 -160v-56q0 -47 1 -94q47 2 94 6q-4 -30 -4 -60q0 -27 4 -56q-86 8 -172 8h-287q-86 0 -173 -8q5 29 5 56q0 30 -5 60q87 -7 173 -7h2l24 208h-26
q-59 0 -116 -5q4 28 4 57q0 25 -4 51q57 -3 116 -3h37l17 143h-31q-86 0 -172 -8q4 29 4 56q0 30 -4 61zM623 141q1 48 1 95v113h-126l-24 -208h149zM1009 370q0 -277 -201 -491l-47 44q75 84 121 208q46 125 46 239q0 115 -45 240q-46 123 -122 207l47 44
q201 -214 201 -491zM263 -77l-48 -44q-201 214 -201 491t201 491l48 -44q-76 -84 -123 -207q-44 -125 -44 -240q0 -114 45 -239q47 -124 122 -208z" />
    <glyph glyph-name="uni3225" unicode="&#x3225;" 
d="M540 724q15 -70 40 -151q-52 -10 -105 -37q-9 76 -36 165q55 6 101 23zM179 540q90 -7 180 -7h305q90 0 180 7q-4 -30 -4 -59q0 -31 4 -61q-90 8 -180 8h-305q-90 0 -180 -8q4 30 4 61q0 29 -4 59zM372 380q50 -25 124 -44q-27 -28 -39 -59q-62 -140 -157 -264
q-35 42 -96 71q74 73 115 154q37 70 53 142zM640 380q61 -147 164 -304q-58 -13 -109 -56q-69 178 -159 312q63 16 104 48zM1009 370q0 -277 -201 -491l-47 44q75 84 121 208q46 125 46 239q0 115 -45 240q-46 123 -122 207l47 44q201 -214 201 -491zM263 -77l-48 -44
q-201 214 -201 491t201 491l48 -44q-76 -84 -123 -207q-44 -125 -44 -240q0 -114 45 -239q47 -124 122 -208z" />
    <glyph glyph-name="uni3226" unicode="&#x3226;" 
d="M819 536q0 -65 21 -124q-171 -19 -328 -52v-204q0 -36 59 -36q91 0 273 12q-36 -47 -36 -108q-117 -4 -272 -4q-145 0 -145 96v218q-101 -22 -204 -50q0 68 -15 124q120 15 219 32v104q0 67 -7 132q62 -21 147 -23q-19 -41 -19 -109v-82q169 34 307 74zM1009 370
q0 -277 -201 -491l-47 44q75 84 121 208q46 125 46 239q0 115 -45 240q-46 123 -122 207l47 44q201 -214 201 -491zM263 -77l-48 -44q-201 214 -201 491t201 491l48 -44q-76 -84 -123 -207q-44 -125 -44 -240q0 -114 45 -239q47 -124 122 -208z" />
    <glyph glyph-name="uni3227" unicode="&#x3227;" 
d="M332 676q58 -22 115 -27q-8 -33 -13 -75q-17 -211 -47 -302q-26 -92 -120 -223q-33 40 -92 83q63 62 97 143q28 66 44 185q12 85 16 216zM567 680q51 -14 121 -15q-16 -50 -16 -85q0 -88 9 -160q13 -83 41 -138q26 -50 60 -85q25 -26 70 -52q-64 -23 -120 -88
q-52 60 -79 114q-50 91 -69 220q-17 119 -17 289zM1009 370q0 -277 -201 -491l-47 44q75 84 121 208q46 125 46 239q0 115 -45 240q-46 123 -122 207l47 44q201 -214 201 -491zM263 -77l-48 -44q-201 214 -201 491t201 491l48 -44q-76 -84 -123 -207q-44 -125 -44 -240
q0 -114 45 -239q47 -124 122 -208z" />
    <glyph glyph-name="uni3228" unicode="&#x3228;" 
d="M219 552q82 -4 158 -4q4 51 7 109q0 59 -4 88q77 -17 132 -17q-17 -39 -22 -85q-3 -50 -7 -95h105q52 0 103 4l-32 -380q0 -44 49 -44q26 0 33 14q9 13 19 94q38 -38 111 -72q-44 -115 -78 -126q-39 -14 -85 -14q-74 0 -116 21q-44 27 -44 75l19 321h-96
q-20 -157 -52 -225q-42 -107 -152 -216q-36 54 -92 88q106 65 152 189q23 59 38 164q-68 -1 -146 -4q4 32 4 59q0 33 -4 56zM1009 370q0 -277 -201 -491l-47 44q75 84 121 208q46 125 46 239q0 115 -45 240q-46 123 -122 207l47 44q201 -214 201 -491zM263 -77l-48 -44
q-201 214 -201 491t201 491l48 -44q-76 -84 -123 -207q-44 -125 -44 -240q0 -114 45 -239q47 -124 122 -208z" />
    <glyph glyph-name="uni3229" unicode="&#x3229;" 
d="M160 464q90 -8 180 -8h116v92q0 90 -9 180q56 -8 133 -8q-17 -43 -17 -107v-157h105q90 0 180 8q-4 -29 -4 -59q0 -31 4 -61q-90 9 -180 9h-105v-141q0 -104 8 -208q-31 5 -63 5q-31 0 -61 -5q9 104 9 208v141h-116q-90 0 -180 -9q4 30 4 61q0 30 -4 59zM1009 370
q0 -277 -201 -491l-47 44q75 84 121 208q46 125 46 239q0 115 -45 240q-46 123 -122 207l47 44q201 -214 201 -491zM263 -77l-48 -44q-201 214 -201 491t201 491l48 -44q-76 -84 -123 -207q-44 -125 -44 -240q0 -114 45 -239q47 -124 122 -208z" />
    <glyph glyph-name="uni4E00" unicode="&#x4e00;" 
d="M72 472q101 -8 203 -8h464q103 0 204 8q-4 -33 -4 -67q0 -35 4 -69q-101 8 -204 8h-464q-102 0 -203 -8q4 34 4 69q0 34 -4 67z" />
    <glyph glyph-name="uni4E01" unicode="&#x4e01;" 
d="M55 804q97 -8 193 -8h527q96 0 193 8q-4 -32 -4 -63q0 -32 4 -65q-97 8 -193 8h-191v-671q0 -53 -48 -75q-43 -26 -177 -26q-3 74 -48 132q71 -4 109 -4q41 0 44 36v608h-216q-96 0 -193 -8q4 33 4 65q0 31 -4 63z" />
    <glyph glyph-name="uni4E03" unicode="&#x4e03;" 
d="M947 605q0 -71 25 -137q-244 -27 -468 -75v-277q0 -59 48 -59h216q32 0 45 22q14 20 14 106q42 -54 128 -76q-16 -96 -37 -123q-31 -45 -118 -45h-296q-119 0 -120 87v340q-159 -33 -316 -76q0 74 -17 136q185 23 333 49v247q0 61 -8 120q74 -11 147 -11q-19 -35 -19 -77
v-256q245 46 443 105z" />
    <glyph glyph-name="uni4E07" unicode="&#x4e07;" 
d="M103 764q93 -8 185 -8h504q92 0 184 8q-4 -31 -4 -63q0 -31 4 -61q-92 9 -184 9h-317v-149h233q79 0 159 8q-12 -61 -15 -140l-29 -215q-8 -151 -108 -196q-70 -32 -200 -45q0 65 -55 137q94 -4 139 -5q56 2 83 40q21 25 26 80l27 229h-264q-6 -67 -21 -135
q-27 -119 -76 -198q-51 -88 -191 -163q-52 67 -124 107q127 36 190 109q56 69 88 185q22 82 22 174v177h-71q-92 0 -185 -9q5 30 5 61q0 32 -5 63z" />
    <glyph glyph-name="uni4E08" unicode="&#x4e08;" 
d="M80 644q95 -8 191 -8h260v140q0 44 -8 72q73 -11 145 -11q-21 -29 -21 -65v-136h101q96 0 191 8q-3 -31 -3 -63q0 -33 3 -65q-95 9 -191 9h-101q-3 -237 -73 -364q61 -45 132 -68q106 -36 277 -36q-79 -83 -99 -149q-199 56 -330 132q-25 17 -47 34q-103 -89 -376 -177
q-39 67 -95 107q285 69 377 152q-39 40 -75 86q-34 42 -123 163q66 24 117 72q50 -118 147 -227l1 -1q49 106 51 276h-260q-96 0 -191 -9q4 32 4 65q0 32 -4 63z" />
    <glyph glyph-name="uni4E09" unicode="&#x4e09;" 
d="M143 777q101 -9 200 -9h337q99 0 200 9q-4 -34 -4 -68q0 -33 4 -65q-101 9 -200 9h-337q-99 0 -200 -9q4 32 4 65q0 34 -4 68zM212 437q95 -9 191 -9h225q96 0 191 9q-4 -32 -4 -65q0 -32 4 -63q-95 8 -191 8h-225q-96 0 -191 -8q3 31 3 63q0 33 -3 65zM68 93
q100 -9 199 -9h489q99 0 199 9q-4 -34 -4 -68q0 -33 4 -65q-100 9 -199 9h-489q-99 0 -199 -9q4 32 4 65q0 34 -4 68z" />
    <glyph glyph-name="uni4E0A" unicode="&#x4e0a;" 
d="M403 848q65 -21 152 -23q-19 -42 -19 -113v-164h176q80 0 172 4q-4 -32 -4 -59q0 -35 4 -60q-62 4 -172 4h-176v-380h235q100 0 201 8q-4 -35 -4 -69q0 -31 4 -63q-101 8 -201 8h-527q-101 0 -201 -8q4 32 4 63q0 34 -4 69q100 -8 201 -8h168v655q0 69 -9 136z" />
    <glyph glyph-name="uni4E0B" unicode="&#x4e0b;" 
d="M51 781q96 -9 193 -9h535q97 0 193 9q-4 -32 -4 -65q0 -32 4 -63q-96 8 -193 8h-239v-581q0 -96 8 -191q-35 4 -69 4t-67 -4q8 95 8 191v581h-176q-97 0 -193 -8q4 31 4 63q0 33 -4 65zM655 516q102 -99 269 -228q-56 -36 -101 -103q-35 49 -108 120q-77 72 -144 115
q50 38 84 96z" />
    <glyph glyph-name="uni4E0C" unicode="&#x4e0c;" 
d="M51 756q96 -7 193 -7h531q96 0 193 7q-4 -32 -4 -63q0 -32 4 -65q-97 8 -193 8h-55v-527q0 -96 7 -193q-34 5 -68 5q-33 0 -67 -5q7 97 7 193v527h-175v-323q-4 -149 -55 -233q-36 -70 -165 -176q-69 54 -132 73q132 65 181 141q54 73 54 195v323h-63q-97 0 -193 -8
q4 33 4 65q0 31 -4 63z" />
    <glyph glyph-name="uni4E0D" unicode="&#x4e0d;" 
d="M72 796q96 -7 191 -7h493q96 0 191 7q-4 -32 -4 -63q0 -32 4 -65q-95 8 -191 8h-115q-33 -59 -70 -113v-431q0 -111 9 -224q-34 4 -68 4q-33 0 -65 -4q9 113 9 224v274q-135 -166 -304 -297q-43 55 -112 112q273 141 473 455h-250q-95 0 -191 -8q4 33 4 65q0 31 -4 63z
M735 508q16 -25 56 -78q64 -78 109 -145q28 -41 55 -81q-46 -12 -128 -59q-19 55 -76 140q-64 95 -131 160q69 25 115 63z" />
    <glyph glyph-name="uni4E0E" unicode="&#x4e0e;" 
d="M72 248q92 -8 184 -8h256q91 0 183 8q-4 -32 -4 -63q0 -30 4 -61q-92 8 -183 8h-256q-92 0 -184 -8q4 31 4 61q0 31 -4 63zM939 709q-3 -31 -3 -56q0 -35 3 -61q-58 4 -164 4h-427q-4 -56 -8 -132h416q63 0 128 4q-11 -77 -15 -156q-7 -153 -14 -219q-4 -91 -53 -124
q-41 -36 -227 -57q-10 78 -44 145q49 -8 89 -8q55 0 80 15q36 23 39 68l13 221h-393q-71 0 -144 -9q37 245 37 368q0 60 -4 121q67 -14 155 -16q-27 -40 -41 -97q-2 -8 -3 -15h416q77 0 164 4z" />
    <glyph glyph-name="uni4E10" unicode="&#x4e10;" 
d="M51 812q92 -8 185 -8h551q93 0 185 8q-4 -31 -4 -63q0 -31 4 -60q-92 8 -185 8h-228v-116h161q75 0 160 3q-4 -30 -4 -55q0 -33 4 -57q-58 5 -160 5h-161v-141h237q65 0 132 4q-12 -50 -15 -101q-7 -99 -14 -142q-4 -93 -52 -127q-40 -36 -223 -58q-11 80 -44 149
q50 -8 92 -8q50 0 72 16q32 25 35 72l13 92h-525q-69 0 -139 -8q19 173 19 260q0 57 -4 115q67 -14 153 -16q-22 -28 -32 -66q-9 -45 -16 -182h199v361h-211q-93 0 -185 -8q4 29 4 60q0 32 -4 63z" />
    <glyph glyph-name="uni4E11" unicode="&#x4e11;" 
d="M160 808q82 -8 164 -8h352q88 0 176 4q-11 -47 -17 -121l-48 -639q89 0 177 9q-5 -32 -5 -65q0 -30 5 -59q-93 8 -185 8h-523q-92 0 -184 -8q4 29 4 59q0 33 -4 65q92 -9 184 -9h92l24 288h-69q-76 0 -164 -4q4 34 4 60q0 32 -4 57q85 -4 164 -4h78l21 252h-78
q-82 0 -164 -9q4 32 4 65q0 30 -4 59zM465 44h203l19 288h-199zM498 441h196l18 252h-194z" />
    <glyph glyph-name="uni4E13" unicode="&#x4e13;" 
d="M147 724q93 -8 185 -8h62q19 80 26 132q51 -17 143 -27q-24 -40 -45 -105h162q91 0 183 8q-4 -31 -4 -63q0 -31 4 -61q-92 9 -183 9h-193q-15 -56 -31 -105h304q92 0 183 8q-4 -31 -4 -63q0 -31 4 -61q-91 9 -183 9h-339q-13 -36 -26 -69h277q78 0 155 8q-4 -29 -4 -59
q0 -33 4 -65q-49 -12 -224 -153q73 -23 161 -50q-46 -44 -88 -109q-58 32 -178 73q-126 43 -258 67q30 55 48 105q50 -14 109 -28q67 -16 111 -30l147 146h-129q-138 0 -238 -36q-6 79 -36 135q33 13 42 25q5 9 15 40h-65q-92 0 -185 -9q4 30 4 61q0 32 -4 63q93 -8 185 -8
h96q1 4 2 6q14 53 26 99h-36q-92 0 -185 -9q5 30 5 61q0 32 -5 63z" />
    <glyph glyph-name="uni4E14" unicode="&#x4e14;" 
d="M212 829q70 -4 139 -4h321q69 0 139 4q-3 -61 -3 -120v-676q83 0 164 7q-4 -31 -4 -63q0 -33 4 -65q-96 9 -193 9h-539q-97 0 -193 -9q4 32 4 65q0 32 -4 63q84 -7 168 -7v676q0 59 -3 120zM340 32h343v165h-343v-165zM340 309h343v144h-343v-144zM340 565h343v144h-343
v-144z" />
    <glyph glyph-name="uni4E15" unicode="&#x4e15;" 
d="M76 793q95 -8 191 -8h493q95 0 191 8q-4 -33 -4 -65q0 -31 4 -63q-96 7 -191 7h-161q-7 -13 -15 -24v-320q0 -114 8 -227q-35 4 -69 4t-67 -4q8 113 8 227v150q-130 -162 -300 -289q-40 51 -105 103q243 120 419 380h-211q-96 0 -191 -7q4 32 4 63q0 32 -4 65zM708 525
q112 -105 247 -216q-47 -33 -92 -97q-118 131 -248 229q54 41 93 84zM51 65q96 -8 193 -8h535q97 0 193 8q-4 -33 -4 -65q0 -31 4 -63q-96 7 -193 7h-535q-97 0 -193 -7q4 32 4 63q0 32 -4 65z" />
    <glyph glyph-name="uni4E16" unicode="&#x4e16;" 
d="M28 584q70 -5 140 -6v27q0 94 -8 188q70 -16 143 -16q-15 -56 -15 -172v-28h115v179q0 46 -8 92q65 -15 141 -19q-17 -44 -17 -84v-168h140v164q0 46 -8 92q58 -10 141 -12q-17 -46 -17 -105v-139h12q97 0 193 7q-4 -32 -4 -63q0 -32 4 -65q-96 8 -193 8h-12v-204
q0 -58 4 -115q-50 4 -99 4h-168q-58 0 -117 -4q8 53 8 107v212h-115v-403h340q134 0 268 8q-4 -35 -4 -69q0 -31 4 -63q-134 7 -268 7h-220q-122 0 -244 -7q4 92 4 168v358q-71 -1 -140 -7q4 33 4 65q0 31 -4 63zM519 464v-208h140v208h-140z" />
    <glyph glyph-name="uni4E18" unicode="&#x4e18;" 
d="M760 684q-27 0 -157 -4q-152 -7 -267 -8v-156h395q83 0 176 5q-4 -33 -4 -61q0 -37 4 -63q-62 4 -176 4h-28v-317h65q99 0 200 9q-4 -34 -4 -68q0 -33 4 -65q-101 9 -200 9h-520q-101 0 -201 -9q4 32 4 65q0 34 -4 68q83 -8 165 -8v564q0 67 -4 136q67 -4 135 -4
q154 1 267 11q93 6 190 33q29 -93 80 -145q-75 4 -120 4zM336 84h248v317h-248v-317z" />
    <glyph glyph-name="uni4E19" unicode="&#x4e19;" 
d="M68 825q92 -8 184 -8h527q92 0 185 8q-5 -32 -5 -65q0 -30 5 -59q-93 8 -185 8h-196q-4 -15 -5 -30q-4 -49 -9 -91h179q86 0 172 8q-9 -67 -9 -136v-372q0 -97 -27 -126q-33 -44 -185 -54q-12 82 -59 145q62 -4 80 -4q53 0 62 12q10 10 10 55v365h-235q-8 -57 -17 -101
q12 -9 25 -18q48 -36 74 -60q50 -44 121 -109q-46 -44 -88 -109q-28 48 -87 112q-40 44 -80 74q-44 -104 -154 -205q-37 54 -95 91q105 60 151 174q23 55 37 151h-217v-449q0 -61 9 -124q-34 4 -68 4q-35 0 -69 -4q9 63 9 124v428q0 69 -9 136q78 -8 157 -8h202q3 44 6 92
v29h-212q-92 0 -184 -8q4 29 4 59q0 33 -4 65z" />
    <glyph glyph-name="uni4E1A" unicode="&#x4e1a;" 
d="M231 640l97 -411q-74 -9 -137 -29q-32 257 -79 417q54 2 119 23zM351 837q62 -23 145 -25q-21 -38 -21 -103v-660h84v660q0 63 -7 128q60 -23 143 -25q-19 -38 -19 -103v-660h99q92 0 184 8q-4 -32 -4 -65q0 -30 4 -59q-92 8 -184 8h-527q-92 0 -185 -8q5 29 5 59
q0 33 -5 65q93 -8 185 -8h111v660q0 63 -8 128zM800 644q68 -29 136 -35q-40 -84 -136 -432q-57 31 -117 39q73 192 117 428z" />
    <glyph glyph-name="uni4E1B" unicode="&#x4e1b;" 
d="M244 833q80 -18 132 -21q-17 -66 -17 -140q0 -119 -12 -242q71 -60 161 -142q-52 -33 -105 -88q-19 38 -76 109q-19 -82 -49 -135q-26 -55 -107 -134q-48 57 -120 84q63 42 114 122q49 88 69 223q15 108 18 251q0 55 -8 113zM599 837q75 -18 169 -20q-41 -66 -41 -160
q0 -99 14 -186q21 -129 74 -212q45 -66 157 -118q-69 -43 -117 -111q51 2 100 6q-4 -32 -4 -63t4 -61q-92 9 -184 9h-531q-93 0 -185 -9q4 30 4 61t-4 63q92 -8 185 -8h236q-51 53 -117 84q78 43 120 90q51 53 81 127q30 75 39 179q8 85 8 149q0 90 -8 180zM489 28h282
q35 0 69 1q-66 66 -104 152q-44 95 -68 283q-21 -155 -55 -246q-36 -99 -124 -190z" />
    <glyph glyph-name="uni4E1C" unicode="&#x4e1c;" 
d="M68 724q96 -8 191 -8h100q22 55 44 121q85 -24 193 -37q-58 -24 -93 -84h265q95 0 191 8q-4 -31 -4 -63q0 -33 4 -65q-96 9 -191 9h-327q-65 -108 -145 -193h196v37q0 53 -5 107q67 -12 141 -12q-21 -50 -21 -116v-16h128q79 0 172 4q-4 -30 -4 -59q0 -27 4 -61
q-93 4 -172 4h-128v-260q0 -94 -50 -110q-54 -26 -141 -26q-12 84 -44 140q57 -4 80 -4q40 0 40 61v199h-193q-66 0 -147 -4q-15 63 -28 116q42 19 80 52q38 32 80 98q12 19 24 43h-49q-95 0 -191 -9q4 32 4 65q0 32 -4 63zM271 265q59 -60 116 -93q-98 -67 -200 -220
q-51 61 -119 97q105 51 203 216zM779 252q61 -101 176 -208q-59 -32 -115 -92q-67 132 -176 229q65 25 115 71z" />
    <glyph glyph-name="uni4E1D" unicode="&#x4e1d;" 
d="M284 844l119 -76q-31 -21 -55 -60q-96 -159 -133 -200l133 22q38 63 47 98l124 -80q-43 -25 -75 -70q-131 -186 -181 -234l216 25q-11 -55 -11 -109q-203 -12 -344 -40l-25 136q65 23 102 68q47 58 80 104q-109 -14 -194 -35l-24 128q49 18 76 58q65 96 97 157
q38 72 48 108zM703 844l120 -76q-31 -22 -55 -62q-96 -164 -132 -206l122 19q50 71 61 109l124 -80q-46 -24 -80 -67q-138 -175 -191 -221l271 24q-11 -53 -11 -107q-235 -14 -401 -40l-23 136q67 20 106 63q36 42 65 77q-96 -11 -171 -29l-25 128q48 20 76 61q65 98 97 160
q38 74 47 111zM59 65q93 -8 185 -8h539q93 0 185 8q-4 -33 -4 -65q0 -29 4 -59q-92 7 -185 7h-539q-92 0 -185 -7q4 30 4 59q0 32 -4 65z" />
    <glyph glyph-name="uni4E1E" unicode="&#x4e1e;" 
d="M152 804q75 -8 151 -8h400q82 0 164 8q-4 -29 -4 -59q0 -38 4 -77q-42 -2 -67 -10q-34 -12 -212 -93q26 -81 69 -142q78 61 154 142q38 -58 100 -97q-44 -13 -201 -107q73 -76 277 -136q-71 -47 -103 -120q-188 108 -253 193q-32 38 -60 95v-189q0 -69 -29 -101
q-24 -30 -134 -38q-11 63 -61 139q60 -11 88 -11q21 0 21 36v371l187 89h-340q-76 0 -151 -9q4 32 4 65q0 30 -4 59zM76 569q80 -8 160 -8h88q61 0 123 8q-60 -252 -118 -332q-54 -83 -198 -161q-45 77 -84 101q99 24 168 89q61 60 96 190h-75q-80 0 -160 -7q4 30 4 59
q0 31 -4 61zM51 53q96 -9 193 -9h531q96 0 193 9q-4 -32 -4 -65q0 -32 4 -63q-97 8 -193 8h-531q-97 0 -193 -8q4 31 4 63q0 33 -4 65z" />
    <glyph glyph-name="uni4E22" unicode="&#x4e22;" 
d="M808 709q-130 -10 -289 -17q36 -7 77 -8q-21 -38 -21 -103h108q92 0 184 7q-4 -32 -4 -63q0 -30 4 -61q-92 8 -184 8h-108v-100h204q92 0 185 8q-5 -31 -5 -63q0 -31 5 -61q-93 9 -185 9h-328q39 -21 85 -40q-60 -36 -113 -81q-61 -52 -124 -87q180 13 373 26
q-32 48 -65 85q70 27 117 65q11 -24 42 -71q49 -69 84 -129q20 -37 42 -73q-46 -13 -128 -60q-10 35 -33 79q-384 -9 -563 -58l-33 136q81 22 137 77q43 38 96 131h-124q-92 0 -185 -9q4 30 4 61q0 32 -4 63q93 -8 185 -8h216v100h-120q-92 0 -184 -8q4 31 4 61q0 31 -4 63
q92 -7 184 -7h120q0 54 -6 108q-132 -6 -283 -9q-24 83 -47 124q88 -15 175 -15q138 0 289 11q109 6 231 37q31 -78 73 -136q-54 8 -84 8z" />
    <glyph glyph-name="uni4E24" unicode="&#x4e24;" 
d="M59 804q91 -8 181 -8h552q90 0 180 8q-4 -29 -4 -59q0 -31 4 -61q-90 9 -180 9h-98q-1 -78 -3 -132h57q83 0 167 8q-8 -67 -8 -132v-361q0 -94 -23 -123q-29 -43 -160 -53q-13 80 -60 140q62 -4 79 -4q36 0 42 13q7 11 7 56v89q-43 -29 -84 -74q-16 35 -59 98
q-25 -76 -86 -178q-32 58 -103 80q54 67 78 127q29 69 41 173q2 17 3 36h-125q-1 -5 -1 -9q-5 -54 -14 -98q39 -36 89 -84q-42 -27 -84 -72q-9 22 -31 62q-1 -2 -1 -3q-28 -72 -100 -172q-28 51 -88 75v-123q0 -59 9 -120q-34 4 -68 4q-33 0 -65 -4q9 61 9 120v405
q0 65 -9 132q76 -8 153 -8h101q3 58 5 132h-122q-90 0 -181 -9q4 30 4 61q0 30 -4 59zM672 315q53 -48 120 -114v255h-105q-1 -16 -2 -28q-4 -63 -13 -113zM587 561q2 58 4 132h-124q-2 -78 -4 -132h124zM227 175q53 56 74 105q35 63 47 162l2 14h-123v-281z" />
    <glyph glyph-name="uni4E25" unicode="&#x4e25;" 
d="M143 829q97 -8 193 -8h416q96 0 191 8q-4 -33 -4 -65q0 -31 4 -63q-95 8 -191 8h-44v-241h123q68 0 137 4q-4 -29 -4 -60q0 -30 4 -59q-69 4 -137 4h-560v-101q-3 -100 -31 -188q-21 -72 -93 -175q-49 44 -119 51q63 69 94 137q34 91 34 175v57q0 80 -9 159q66 -4 133 -4
h115v241h-59q-96 0 -193 -8q4 32 4 63q0 32 -4 65zM504 468h95v241h-95v-241zM292 668q25 -63 67 -131q-57 -13 -107 -56q-29 80 -65 140q64 14 105 47zM819 676q48 -37 109 -59q-33 -31 -84 -132q-42 33 -101 52q34 35 76 139z" />
    <glyph glyph-name="uni4E27" unicode="&#x4e27;" 
d="M112 760q92 -8 184 -8h146q-1 47 -7 92q60 -21 140 -23q-15 -28 -18 -69h159q92 0 183 8q-3 -32 -3 -63q0 -30 3 -61q-91 8 -183 8h-161v-235h220q92 0 184 7q-4 -32 -4 -63q0 -30 4 -61q-92 8 -184 8h-238q33 -88 83 -137q69 51 136 118q37 -58 99 -96q-37 -10 -165 -71
q106 -54 286 -65q-60 -53 -92 -120q-239 56 -322 147q-79 78 -119 224h-115v-231q69 24 151 63q5 -57 25 -104q-143 -50 -264 -124q-31 57 -57 84q32 54 32 109v202q-77 -1 -152 -7q5 31 5 61q0 31 -5 63q93 -7 185 -7h195v235h-147q-92 0 -184 -8q4 31 4 61q0 31 -4 63z
M292 621q31 -71 84 -144q-58 -14 -109 -57q-35 87 -80 153q64 14 105 48zM699 628q47 -37 109 -59q-38 -35 -96 -149q-42 33 -101 52q39 39 88 156z" />
    <glyph glyph-name="uni4E28" unicode="&#x4e28;" 
d="M439 829q61 -8 145 -8q-17 -47 -17 -120v-569q0 -113 8 -228q-33 4 -67 4q-35 0 -69 -4q8 115 8 228v496q0 100 -8 201z" />
    <glyph glyph-name="uni4E2A" unicode="&#x4e2a;" 
d="M435 848q65 -45 140 -67l-20 -24q58 -96 153 -161q86 -60 251 -107q-57 -54 -92 -132q-157 80 -241 159q-75 66 -124 164q-104 -157 -174 -215q-67 -62 -181 -129q-34 56 -111 101q110 42 179 93q71 58 126 136q63 89 94 182zM427 516q62 -8 148 -8q-16 -51 -16 -128
v-239q0 -118 8 -237q-36 4 -71 4q-34 0 -69 -4q8 119 8 237v168q0 103 -8 207z" />
    <glyph glyph-name="uni4E2B" unicode="&#x4e2b;" 
d="M215 825q114 -111 249 -229q-48 -30 -92 -92q-117 138 -244 241q50 39 87 80zM760 825q69 -59 151 -92q-88 -44 -152 -111q-117 -115 -196 -177v-409q0 -69 4 -139q-33 3 -67 3q-32 0 -65 -3q4 70 4 139v468q93 53 191 153q92 97 130 168z" />
    <glyph glyph-name="uni4E2C" unicode="&#x4e2c;" 
d="M196 716q71 -87 163 -164q-38 -23 -92 -99q-69 102 -159 179q51 33 88 84zM368 829q59 -8 144 -8q-16 -47 -16 -120v-569q0 -113 8 -228q-35 4 -69 4t-67 -4q8 115 8 228v134q-185 -109 -237 -165q-22 80 -76 139q109 26 313 136v252q0 100 -8 201z" />
    <glyph glyph-name="uni4E2D" unicode="&#x4e2d;" 
d="M80 668q90 -7 179 -7h180q-1 91 -8 179q59 -7 140 -7q-16 -46 -16 -117v-55h184q90 0 181 7q-9 -84 -9 -168v-143q0 -88 9 -176q-49 4 -65 4t-68 -4q4 28 5 56h-237v-113q0 -111 8 -224q-34 4 -67 4q-32 0 -65 -4q8 113 8 224v113h-231q1 -33 4 -65q-51 5 -69 5
q-15 0 -63 -5q7 88 7 177v151q0 84 -7 168zM204 344h235v208h-235v-208zM555 552v-208h241v208h-241z" />
    <glyph glyph-name="uni4E30" unicode="&#x4e30;" 
d="M128 701q95 -8 191 -8h127q-1 70 -7 140q61 -8 145 -8q-17 -48 -17 -120v-12h141q96 0 191 8q-3 -33 -3 -65q0 -31 3 -63q-95 8 -191 8h-141v-109h97q92 0 184 9q-4 -32 -4 -65q0 -30 4 -59q-92 8 -184 8h-97v-105h181q96 0 191 9q-3 -32 -3 -65q0 -32 3 -63
q-95 8 -191 8h-181v-21q0 -113 8 -228q-33 4 -67 4q-35 0 -69 -4q8 115 8 228v21h-172q-96 0 -191 -8q3 31 3 63q0 33 -3 65q95 -9 191 -9h172v105h-83q-93 0 -185 -8q4 29 4 59q0 33 -4 65q92 -9 185 -9h83v109h-128q-96 0 -191 -8q3 32 3 63q0 32 -3 65z" />
    <glyph glyph-name="uni4E32" unicode="&#x4e32;" 
d="M147 741q101 -4 200 -4h103q-3 51 -7 100q59 -8 141 -8q-14 -38 -16 -92h100q100 0 199 4q-4 -55 -4 -109v-88q0 -59 4 -120q-99 4 -199 4h-101v-60h160q90 0 180 8q-8 -82 -8 -164v-15q0 -88 8 -176q-48 4 -63 4q-18 0 -69 -4q2 20 3 40h-210q1 -84 7 -168q-33 4 -67 4
q-33 0 -65 -4q7 85 8 168h-219q1 -24 4 -44q-52 4 -68 4t-65 -4q9 88 9 176v19q0 82 -9 164q91 -8 181 -8h168v60h-105q-99 0 -200 -4q5 61 5 120v88q-5 54 -5 109zM748 533v99h-181v-99h181zM452 533v99h-185v-99h185zM228 164h224v101h-225v-72q0 -14 1 -29zM567 265v-101
h215q1 18 1 33v68h-216z" />
    <glyph glyph-name="uni4E34" unicode="&#x4e34;" 
d="M63 724q59 -8 141 -8q-17 -46 -17 -116v-344q0 -111 9 -224q-34 4 -68 4q-33 0 -65 -4q9 113 9 224v273q0 97 -9 195zM236 817q60 -9 144 -9q-16 -47 -16 -119v-204q52 52 95 154q29 69 64 209q71 -33 157 -44q-41 -36 -68 -102q-3 -7 -5 -13h189q80 0 172 4
q-4 -33 -4 -61q0 -34 4 -59q-62 4 -172 4h-235q-35 -79 -78 -161q-52 43 -119 58v-354q0 -113 8 -227q-34 4 -69 4q-34 0 -67 -4q8 114 8 227v497q0 99 -8 200zM703 561q26 -55 68 -112q-54 -12 -103 -52q-30 66 -69 115q64 16 104 49zM420 397q90 -9 179 -9h165q89 0 179 9
q-7 -82 -7 -164v-153q0 -88 7 -176q-47 4 -63 4q-18 0 -69 -4q4 39 5 77h-269q2 -40 5 -77q-51 4 -69 4q-15 0 -63 -4q7 88 7 176v153q0 82 -7 164zM544 80h84v204h-84v-204zM731 80h88v204h-88v-204z" />
    <glyph glyph-name="uni4E36" unicode="&#x4e36;" 
d="M479 621q11 -26 41 -78q47 -77 79 -142q21 -41 41 -80q-45 -13 -125 -61q-13 55 -54 140q-45 93 -93 156q66 26 111 65z" />
    <glyph glyph-name="uni4E38" unicode="&#x4e38;" 
d="M131 640q85 -4 165 -4h68v82q0 52 -9 119q57 -12 145 -12q-21 -37 -21 -86v-103h197q55 0 111 4l-44 -560q0 -52 49 -52q28 0 35 19q10 19 21 130q39 -40 116 -76q-46 -150 -83 -162q-40 -18 -89 -18q-77 0 -122 22q-46 30 -46 82l31 504h-178q-6 -153 -26 -250
q59 -41 120 -82q-58 -56 -79 -109q-38 38 -78 73l-3 -6q-67 -131 -243 -251q-46 57 -121 88q198 111 259 229q4 8 7 17q-54 38 -113 71q49 41 84 92q30 -24 61 -46q12 74 16 174h-65q-77 0 -165 -4q4 32 4 59q0 33 -4 56z" />
    <glyph glyph-name="uni4E39" unicode="&#x4e39;" 
d="M227 825q65 -4 128 -4h325q63 0 128 4q-4 -82 -4 -164v-268q88 0 176 8q-4 -33 -4 -65q0 -29 4 -59q-89 7 -176 7v-240q0 -64 -32 -95q-29 -33 -161 -45q-16 73 -63 124q72 -7 99 -7q40 0 40 48v215h-341q-5 -95 -30 -170q-42 -117 -116 -206q-62 36 -124 48
q97 96 124 178q24 63 29 150q-88 0 -174 -7q4 30 4 59q0 32 -4 65q89 -8 176 -8v268q2 82 -4 164zM347 393h340v319h-340v-319zM552 657l47 -189q-65 -8 -120 -27q-14 118 -36 191q49 2 109 25z" />
    <glyph glyph-name="uni4E3A" unicode="&#x4e3a;" 
d="M355 796q28 -66 72 -135q-56 -13 -108 -56q-29 82 -67 144q62 14 103 47zM139 581q80 -8 160 -8h208q10 70 16 151q0 71 -4 105q89 -17 153 -17q-35 -50 -43 -106q-8 -72 -18 -133h193q67 0 135 4q-16 -70 -19 -149l-32 -375q-5 -84 -85 -114q-91 -31 -156 -35
q0 75 -48 124q58 -3 84 -3q59 0 82 31q14 25 14 53l32 359h-218q-43 -211 -110 -300q-85 -136 -308 -271q-42 59 -107 99q231 83 330 243q58 82 89 229h-188q-80 0 -160 -8q4 31 4 61q0 29 -4 60zM655 321q29 -69 76 -140q-56 -14 -107 -57q-32 85 -72 149q62 14 103 48z
" />
    <glyph glyph-name="uni4E3B" unicode="&#x4e3b;" 
d="M523 844q29 -82 73 -143q-44 -6 -91 -29h238q93 0 185 8q-4 -31 -4 -63q0 -31 4 -61q-92 9 -185 9h-180v-197h120q92 0 184 8q-4 -32 -4 -63q0 -30 4 -61q-92 8 -184 8h-120v-232h224q93 0 185 8q-4 -32 -4 -63t4 -61q-92 9 -185 9h-547q-93 0 -185 -9q4 30 4 61t-4 63
q92 -8 185 -8h207v232h-123q-93 0 -185 -8q4 31 4 61q0 31 -4 63q92 -8 185 -8h123v197h-167q-93 0 -185 -9q4 30 4 61q0 32 -4 63q92 -8 185 -8h182q-26 77 -54 124q58 12 115 48z" />
    <glyph glyph-name="uni4E3D" unicode="&#x4e3d;" 
d="M51 804q92 -8 185 -8h543q92 0 185 8q-5 -32 -5 -63t5 -61q-93 9 -185 9h-543q-93 0 -185 -9q4 30 4 61t-4 63zM95 621q63 -4 124 -4h136q63 0 124 4q-4 -86 -4 -172v-436q0 -59 -49 -81q-50 -24 -107 -24q-5 62 -44 132q36 -8 61 -8q28 0 28 48v436h-152v-495
q0 -63 3 -124q-30 3 -59 3q-30 0 -61 -3q4 61 4 124v428q0 86 -4 172zM324 416q1 -111 27 -256q-47 0 -95 -11q0 122 -29 260q53 0 97 7zM527 617q63 -4 124 -4h153q61 0 124 4q-4 -86 -4 -172v-445q0 -58 -55 -81q-56 -22 -117 -22q-6 61 -44 131q45 -7 75 -7q28 0 28 48
v443h-168v-491q0 -63 4 -124q-30 3 -59 3q-31 0 -61 -3q4 61 4 124v424q0 86 -4 172zM768 420q1 -111 28 -256q-50 0 -101 -11q0 122 -27 259q54 0 100 8z" />
    <glyph glyph-name="uni4E3E" unicode="&#x4e3e;" 
d="M252 812q34 -69 91 -144q-59 -12 -112 -55q-38 84 -88 147q66 17 109 52zM540 837l35 -165q-69 -8 -128 -28q-10 105 -23 168q52 2 116 25zM703 840q89 -48 152 -63q-53 -50 -120 -172h29q89 0 179 8q-4 -31 -4 -61q0 -29 4 -59q-90 7 -179 7h-59q33 -32 73 -56
q69 -42 202 -76q-53 -48 -84 -120q-90 44 -147 86q-1 -11 -1 -21q0 -30 4 -61q-90 8 -181 8v-71h164q92 0 185 8q-5 -33 -5 -65q0 -29 5 -60q-93 8 -185 8h-163q0 -94 8 -187q-34 4 -68 4q-33 0 -65 -4q8 94 8 187h-159q-92 0 -184 -8q4 31 4 60q0 32 -4 65q92 -8 184 -8
h160v71h-13q-90 0 -180 -8q4 31 4 61q0 10 -1 19q-58 -46 -127 -88q-30 46 -96 88q110 41 187 113q31 24 56 55h-27q-89 0 -179 -7q4 30 4 59q0 30 -4 61q90 -8 179 -8h376q47 124 68 235zM311 369q66 -4 132 -4h11q-2 48 -7 95q59 -7 141 -7q-14 -37 -16 -88q68 0 133 4
q-62 52 -101 131h-167q-9 -10 -17 -19q-47 -59 -109 -112z" />
    <glyph glyph-name="uni4E3F" unicode="&#x4e3f;" 
d="M483 829q53 -12 132 -12q-19 -58 -19 -133v-140q0 -312 -54 -425q-53 -112 -191 -215q-41 52 -107 80q154 95 202 196q46 98 46 364v106q0 79 -9 179z" />
    <glyph glyph-name="uni4E43" unicode="&#x4e43;" 
d="M147 785q63 -4 124 -4h405q76 0 151 4q-15 -46 -79 -317h111q46 0 92 4q-6 -34 -12 -117q-13 -187 -24 -258q-8 -111 -87 -143q-75 -33 -160 -33q-13 74 -57 132q70 -9 92 -9q91 0 101 101l19 212h-120q-46 0 -92 -4q47 217 65 315h-173q-5 -186 -34 -319
q-40 -179 -124 -287q-76 -96 -181 -154q-49 78 -101 117q89 33 163 98q75 76 110 180q30 82 43 203q7 41 8 162h-116q-61 0 -124 -3q5 30 5 59q0 30 -5 61z" />
    <glyph glyph-name="uni4E45" unicode="&#x4e45;" 
d="M368 833q73 -34 144 -44q-27 -27 -62 -117q-4 -8 -7 -15h153q86 0 172 8q-73 -175 -139 -297q80 -167 144 -217q67 -62 210 -111q-80 -55 -128 -136q-140 103 -214 222q-39 58 -72 140q-21 -34 -41 -60q-93 -141 -372 -313q-37 59 -97 107q195 81 308 203
q109 112 200 337h-177q-17 -35 -36 -66q-57 -93 -123 -174q-51 41 -136 68q104 87 161 184q56 92 112 281z" />
    <glyph glyph-name="uni4E47" unicode="&#x4e47;" 
d="M764 676q-110 -15 -241 -26v-201l214 6q92 3 227 17q-5 -29 -5 -60q0 -32 9 -63q-121 -1 -244 -1l-201 -8v-216q0 -29 12 -48q15 -15 49 -15h195q29 0 37 14q10 20 20 110q52 -48 132 -73q-24 -98 -46 -127q-29 -41 -111 -41h-275q-81 0 -106 39q-27 33 -27 114v239
l-132 -5q-91 -1 -208 -14q5 32 5 63t-9 61q117 1 205 1l139 4v194q-113 -7 -239 -12q-27 91 -52 136q98 -15 195 -15q124 0 260 16q99 11 208 56q34 -84 80 -149q-58 4 -91 4z" />
    <glyph glyph-name="uni4E48" unicode="&#x4e48;" 
d="M380 821q65 -31 172 -44q-56 -40 -110 -153q-114 -221 -255 -391q-59 57 -132 63q138 115 218 260q78 138 107 265zM611 640l141 -88q-70 -44 -121 -119q-211 -316 -291 -397l382 41q-48 70 -98 120q71 27 119 68q15 -26 54 -79q62 -80 105 -148q27 -42 53 -82
q-47 -14 -132 -63q-12 38 -42 89q-348 -22 -598 -66l-27 153q99 34 156 102q135 170 201 278q81 127 98 191z" />
    <glyph glyph-name="uni4E49" unicode="&#x4e49;" 
d="M695 752q95 -36 181 -47q-65 -82 -101 -186q-58 -168 -161 -297q-17 -23 -35 -42q20 -15 42 -25q139 -78 351 -111q-77 -52 -124 -151q-230 108 -351 209q-129 -108 -333 -205q-47 52 -117 112q231 65 367 172q-60 68 -106 155q-94 182 -125 373q66 2 128 19
q8 -194 90 -342q42 -77 92 -132q156 172 202 498zM519 833l73 -260q-75 -9 -136 -29q-24 164 -57 264q55 2 120 25z" />
    <glyph glyph-name="uni4E4B" unicode="&#x4e4b;" 
d="M519 840q32 -90 80 -160q-52 -7 -111 -40h232q76 0 151 4q-83 -185 -202 -312q-108 -116 -337 -247q81 -15 148 -19q69 -5 169 -5q85 0 338 23q-38 -62 -55 -143q-327 2 -446 19q-146 19 -238 65q-11 8 -25 8q-15 0 -92 -108q-41 100 -72 151q63 39 185 88
q118 51 231 138q106 77 197 223h-468q-48 0 -96 -4q4 31 4 63q0 31 -4 60q48 -4 96 -4h260q-30 93 -65 149q61 12 120 51z" />
    <glyph glyph-name="uni4E4C" unicode="&#x4e4c;" 
d="M408 848q57 -17 136 -23q-28 -31 -48 -88h212q67 0 136 4q-11 -58 -13 -97q-3 -14 -4 -31q-3 -23 -8 -32q-5 -101 -46 -143q-37 -41 -162 -66q-7 57 -48 121h73q34 0 49 25q16 21 18 66q6 8 7 25q2 14 2 23h-365v-292h484q55 0 108 4q-10 -63 -11 -128q-1 -24 -2 -50
q-1 -35 -2 -50q-5 -114 -60 -171q-49 -49 -152 -52q-9 69 -44 132q64 -8 88 -8q22 1 37 24q16 28 18 75q2 11 3 55q1 35 1 66h-460q-63 0 -128 -4q4 61 4 124v267q0 58 -4 117q65 -4 128 -4h44zM91 177q90 -9 180 -9h281q89 0 179 9q-4 -30 -4 -61q0 -30 4 -59q-90 8 -179 8
h-281q-90 0 -180 -8q4 29 4 59q0 31 -4 61z" />
    <glyph glyph-name="uni4E4D" unicode="&#x4e4d;" 
d="M340 844q63 -24 143 -48q-24 -15 -48 -73q-11 -24 -23 -47h359q77 0 165 4q-4 -29 -4 -56q0 -34 4 -59q-59 4 -165 4h-263v-124h223q76 0 161 4q-4 -31 -4 -56q0 -33 4 -57q-57 4 -161 4h-223v-132h231q75 0 160 4q-3 -29 -3 -56q0 -32 3 -55q-56 4 -160 4h-231v-33
q0 -89 7 -179q-32 4 -63 4q-32 0 -65 -4q8 90 8 179v497h-42q-74 -129 -157 -220q-40 37 -116 71q119 102 168 188q51 83 92 236z" />
    </font>
</defs>
</svg>
