<?xml version="1.0" standalone="no"?>
<!DOCTYPE svg PUBLIC "-//W3C//DTD SVG 1.1//EN" "http://www.w3.org/Graphics/SVG/1.1/DTD/svg11.dtd" >
<svg xmlns="http://www.w3.org/2000/svg" xmlns:xlink="http://www.w3.org/1999/xlink" version="1.1">
<metadata></metadata>
<defs>
<font id="poppinssemibold" horiz-adv-x="1406" >
<font-face units-per-em="2048" ascent="1638" descent="-410" />
<missing-glyph horiz-adv-x="614" />
<glyph unicode="&#xfb01;" horiz-adv-x="1277" d="M49 899v236h123v63q0 205 108.5 299t342.5 94v-241q-90 0 -127 -35t-37 -117v-63h665v-1135h-286v899h-379v-899h-287v899h-123zM807 1423.5q0 73.5 50 124.5t124 51t124 -51t50 -124.5t-50 -125t-124 -51.5t-124 51.5t-50 125z" />
<glyph unicode="&#xfb02;" horiz-adv-x="1277" d="M49 899v236h123v63q0 205 108.5 299t342.5 94v-241q-90 0 -127 -35t-37 -117v-63h180v-236h-180v-899h-287v899h-123zM838 0v1516h288v-1516h-288z" />
<glyph horiz-adv-x="0" />
<glyph horiz-adv-x="0" />
<glyph unicode="&#xd;" horiz-adv-x="614" />
<glyph unicode=" "  horiz-adv-x="614" />
<glyph unicode="&#x09;" horiz-adv-x="614" />
<glyph unicode="&#xa0;" horiz-adv-x="614" />
<glyph unicode="!" horiz-adv-x="858" d="M287 163.5q0 69.5 48 117t116.5 47.5t116.5 -47.5t48 -117t-48 -116.5t-116.5 -47t-116.5 47t-48 116.5zM291 1538h307l-33 -1057h-241z" />
<glyph unicode="&#x22;" horiz-adv-x="745" d="M76 1636h248l-27 -436h-195zM422 1636h248l-27 -436h-194z" />
<glyph unicode="#" horiz-adv-x="1839" d="M47 338v256h369l71 336h-313v256h369l69 330h271l-70 -330h375l69 330h271l-70 -330h258v-256h-313l-72 -336h258v-256h-313l-72 -338h-270l72 338h-375l-72 -338h-270l71 338h-313zM686 594h375l72 336h-375z" />
<glyph unicode="$" horiz-adv-x="1325" d="M123 403h307q12 -156 154 -182v391q-209 55 -283 97q-178 98 -178 313q0 178 130 294t331 132v166h118v-166q199 -12 317 -113.5t128 -294.5h-301q-6 61 -44 106.5t-100 63.5v-387q209 -53 287 -98q166 -98 166 -309q0 -164 -124 -288t-329 -140v-166h-118v166 q-209 14 -335 122.5t-126 292.5zM422 1040q0 -127 162 -182v356q-162 -24 -162 -174zM702 221q74 14 115 62t41 116q0 119 -156 179v-357z" />
<glyph unicode="%" horiz-adv-x="1566" d="M74 1126.5q0 153.5 91 240.5t233.5 87t233.5 -87t91 -240.5t-90 -241.5t-233.5 -88t-234.5 88t-91 241.5zM242 0l802 1434h281l-805 -1434h-278zM283 1125.5q0 -156.5 115.5 -156.5t115.5 156.5t-115.5 156.5t-115.5 -156.5zM844 308.5q0 154.5 91 241.5t233.5 87 t233.5 -87t91 -241.5t-90 -241.5t-233.5 -87t-234.5 87t-91 241.5zM1053 308.5q0 -156.5 114.5 -156.5t114.5 156.5t-114.5 156.5t-114.5 -156.5z" />
<glyph unicode="&#x26;" horiz-adv-x="1409" d="M68 422q0 180 102 301t250 141q-121 176 -121 308.5t106.5 238t293 105.5t295 -98.5t108.5 -231.5q0 -68 -25 -117h-276q18 33 18 83t-33.5 85t-87 35t-86 -35t-32.5 -91t61 -138l756 -1008h-336l-158 217q-53 -102 -158.5 -166.5t-230.5 -64.5q-186 0 -316 128t-130 308 zM313 434q0 -88 59.5 -150.5t143.5 -62.5t144.5 62.5t60.5 150.5t-60.5 148.5t-144.5 60.5t-143.5 -60.5t-59.5 -148.5z" />
<glyph unicode="'" horiz-adv-x="399" d="M76 1636h248l-27 -436h-195z" />
<glyph unicode="(" horiz-adv-x="1046" d="M203 824q0 382 151.5 699.5t399.5 504.5h290v-27q-283 -227 -423 -530.5t-140 -647.5t140.5 -646t422.5 -531v-27h-290q-248 186 -399.5 504.5t-151.5 700.5z" />
<glyph unicode=")" horiz-adv-x="1048" d="M6 -354q283 229 422 531t139 646t-139 647.5t-422 530.5v27h289q250 -187 400.5 -504.5t150.5 -699.5t-150.5 -700.5t-400.5 -504.5h-289v27z" />
<glyph unicode="*" horiz-adv-x="1060" d="M139 1030l267 96l-265 93l105 188l227 -182l-47 286h215l-49 -286l225 182l103 -186l-269 -97l269 -96l-109 -190l-219 182l47 -283h-213l45 283l-219 -184z" />
<glyph unicode="+" horiz-adv-x="1402" d="M178 598v260h385v393h275v-393h385v-260h-385v-391h-275v391h-385z" />
<glyph unicode="," horiz-adv-x="450" d="M68 -80v266h251q76 -211 33 -364q-23 -76 -87 -121t-167 -45v115q53 0 78 24.5t25 85.5v39h-133z" />
<glyph unicode="-" horiz-adv-x="1193" d="M162 610v240h870v-240h-870z" />
<glyph unicode="." horiz-adv-x="501" d="M88 163.5q0 69.5 47 117t115.5 47.5t117 -47.5t48.5 -117t-48.5 -116.5t-117 -47t-115.5 47t-47 116.5z" />
<glyph unicode="/" horiz-adv-x="995" d="M76 -371l553 2310h280l-553 -2310h-280z" />
<glyph unicode="0" horiz-adv-x="1323" d="M109 746.5q0 742.5 551.5 742.5t551.5 -742.5t-551.5 -742.5t-551.5 742.5zM391 747.5q0 -83.5 5 -145t21.5 -128t44 -108.5t79 -69t121 -27t121 27t79 69t44 108.5t21.5 128t5 145t-5 145t-21.5 128t-44 107.5t-79 68t-121 27t-121 -27t-79 -68t-44 -107.5t-21.5 -128 t-5 -145z" />
<glyph unicode="1" horiz-adv-x="784" d="M76 1190v264h512v-1454h-295v1190h-217z" />
<glyph unicode="2" horiz-adv-x="1175" d="M90 1010q2 240 140.5 364.5t361.5 124.5t350 -127t127 -319q0 -143 -74 -267q-37 -66 -71.5 -115.5t-99 -115.5t-101.5 -102.5t-111.5 -103t-103.5 -93.5h596v-236h-1010v211q53 47 164 142.5t166 144.5t136 130t120 136q100 143 100 254q0 217 -200 217 q-98 0 -153.5 -65.5t-57.5 -179.5h-279z" />
<glyph unicode="3" horiz-adv-x="1226" d="M92 451h279q4 -100 68.5 -161t173 -61t165 58.5t56.5 167t-77 161t-243 52.5h-59v235h59q291 0 291 195q0 84 -53.5 133t-151.5 49t-147.5 -55.5t-57.5 -122.5h-280q6 201 142 312.5t356.5 111.5t345 -111.5t124.5 -281.5q0 -131 -67.5 -220.5t-151.5 -117.5v-9 q246 -84 246 -370q0 -190 -131 -307t-360.5 -117t-375 116.5t-151.5 342.5z" />
<glyph unicode="4" horiz-adv-x="1353" d="M98 291v225l668 959h334v-934h180v-250h-180v-291h-287v291h-715zM422 541h409v622z" />
<glyph unicode="5" horiz-adv-x="1318" d="M152 412h282q18 -80 85 -127t178.5 -47t173 75.5t61.5 200.5t-62.5 192.5t-167.5 67.5q-197 0 -241 -158h-275v881h916v-252h-653v-340q43 47 118.5 79t184 32t206 -45t148.5 -121q102 -147 102 -328q0 -238 -136 -380t-377.5 -142t-380 113.5t-162.5 298.5z" />
<glyph unicode="6" horiz-adv-x="1310" d="M137 770q0 760 537 760q215 0 333.5 -116t141.5 -288h-266q-39 166 -213 166q-139 0 -209 -110.5t-72 -354.5q53 78 147.5 119t196.5 41q205 0 332 -129t127 -356.5t-131 -364.5t-365 -137q-303 0 -431 190.5t-128 579.5zM416 497.5q0 -118.5 71.5 -190t185 -71.5 t177 69.5t63.5 183t-61 186.5t-177 73t-187.5 -66t-71.5 -184.5z" />
<glyph unicode="7" horiz-adv-x="1146" d="M84 1245v238h987v-213l-553 -1270h-313l579 1245h-700z" />
<glyph unicode="8" horiz-adv-x="1316" d="M119 432q0 133 63.5 229.5t175.5 145.5q-204 109 -204 330q0 170 131 287.5t373.5 117.5t372.5 -118.5t130 -288.5q0 -221 -203 -328q240 -102 240 -375q0 -213 -151.5 -339t-387 -126t-388 126t-152.5 339zM395 448.5q0 -110.5 70 -177t191.5 -66.5t188 67.5t66.5 175 t-67.5 171t-186 63.5t-190.5 -61.5t-72 -172zM434 1099q0 -95 63.5 -152.5t161 -57.5t161 57.5t63.5 152.5t-60.5 150.5t-163 55.5t-164 -55.5t-61.5 -150.5z" />
<glyph unicode="9" horiz-adv-x="1302" d="M145 1027q0 230 135.5 365.5t368.5 135.5q293 0 411 -189.5t118 -578.5t-110 -574.5t-404 -185.5q-231 0 -350 123t-130 307h267q32 -192 231 -192q127 0 185.5 100t58.5 338q-45 -55 -128 -88t-177 -33q-211 0 -343.5 121t-132.5 351zM422 1042.5q0 -106.5 61.5 -177 t176 -70.5t176 64.5t61.5 181t-63.5 183t-174 66.5t-174 -70.5t-63.5 -177z" />
<glyph unicode=":" horiz-adv-x="641" d="M152 163.5q0 69.5 47 117t116.5 47.5t116.5 -47.5t47 -117t-47 -116.5t-116.5 -47t-116.5 47t-47 116.5zM152 1002.5q0 68.5 47 116.5t116.5 48t116.5 -48t47 -116.5t-47 -115.5t-116.5 -47t-116.5 47t-47 115.5z" />
<glyph unicode=";" horiz-adv-x="688" d="M201 1003.5q0 69.5 47 116.5t115.5 47t116.5 -47t48 -116.5t-48 -116.5t-116.5 -47t-115.5 47t-47 116.5zM219 -80v266h252q76 -211 33 -364q-23 -76 -87.5 -121t-166.5 -45v115q53 0 77.5 24.5t24.5 85.5v39h-133z" />
<glyph unicode="&#x3c;" horiz-adv-x="1198" d="M168 729l446 459h363l-449 -459l449 -459h-363z" />
<glyph unicode="=" horiz-adv-x="1591" d="M238 354v256h1116v-256h-1116zM238 846v258h1116v-258h-1116z" />
<glyph unicode="&#x3e;" horiz-adv-x="1179" d="M184 270l447 459l-447 459h361l446 -459l-446 -459h-361z" />
<glyph unicode="?" horiz-adv-x="1312" d="M190 1112q-4 191 122 311.5t342 120.5t347.5 -116.5t131.5 -326.5t-119 -304.5t-352 -98.5v-223h-271v414h117q176 0 261 45t85 176q0 90 -52 143.5t-143.5 53.5t-143.5 -52.5t-52 -142.5h-273zM369 157.5q0 69.5 48 117t116.5 47.5t116.5 -47.5t48 -117t-48 -116.5 t-116.5 -47t-116.5 47t-48 116.5z" />
<glyph unicode="@" horiz-adv-x="2521" d="M88 453q0 348 178 621.5t481.5 422t673.5 148.5q459 0 736.5 -245t277.5 -665q0 -315 -188.5 -533t-429.5 -218q-137 0 -211 67.5t-84 186.5q-145 -254 -406 -254q-209 0 -341 165.5t-97 421.5t222 417t429 161t376 -147.5t101 -387.5l-41 -278q-12 -104 72 -105 q102 0 202.5 142.5t100.5 361.5q0 309 -202.5 495.5t-551.5 186.5q-436 0 -720.5 -278.5t-284.5 -685.5q0 -348 222 -552t622 -208l-58 -228q-487 4 -783 271.5t-296 716.5zM959.5 566.5q-21.5 -150.5 49 -243t184.5 -92.5t211 92.5t118 243.5q23 152 -49 243t-184.5 91 t-210 -92t-119 -242.5z" />
<glyph unicode="A" horiz-adv-x="1443" d="M45 0l506 1434h342l504 -1434h-305l-93 268h-557l-92 -268h-305zM518 489h408l-205 596z" />
<glyph unicode="B" horiz-adv-x="1331" d="M154 0v1430h579q219 0 345 -106.5t126 -270.5q0 -240 -278 -322q141 -20 226 -121.5t85 -234.5q0 -168 -127 -271.5t-344 -103.5h-612zM442 221h291q96 0 154.5 52.5t58.5 144.5t-59.5 145t-155.5 53h-289v-395zM442 838h260q96 0 152.5 48t56.5 136t-56 137t-153 49 h-260v-370z" />
<glyph unicode="C" horiz-adv-x="1574" d="M74 718.5q0 317.5 212 524.5t519 207q233 0 414.5 -119t259.5 -334h-346q-96 188 -328 189q-195 0 -316.5 -128t-121.5 -340t121.5 -340t316.5 -128q229 0 328 188h346q-78 -215 -259.5 -332.5t-414.5 -117.5q-309 0 -520 206.5t-211 524z" />
<glyph unicode="D" horiz-adv-x="1480" d="M154 0v1430h485q344 0 556 -197t212 -520.5t-212 -518t-556 -194.5h-485zM442 219h197q225 0 350 133t125 360.5t-125 360.5t-350 133h-197v-987z" />
<glyph unicode="E" horiz-adv-x="1120" d="M154 0v1434h825v-222h-537v-374h476v-222h-476v-395h537v-221h-825z" />
<glyph unicode="F" horiz-adv-x="1112" d="M154 0v1430h884v-222h-596v-374h455v-222h-455v-612h-288z" />
<glyph unicode="G" horiz-adv-x="1574" d="M74 718.5q0 317.5 212 524.5t519 207q233 0 414.5 -119t259.5 -334h-346q-96 188 -328 189q-195 0 -316.5 -128t-121.5 -340t121.5 -340t299 -128t278.5 87t126 234h-475v220h784v-220q-37 -233 -229.5 -408t-484 -175t-502.5 206.5t-211 524z" />
<glyph unicode="H" horiz-adv-x="1499" d="M154 0v1430h288v-596h615v596h289v-1430h-289v612h-615v-612h-288z" />
<glyph unicode="I" horiz-adv-x="595" d="M154 0v1430h288v-1430h-288z" />
<glyph unicode="J" horiz-adv-x="1183" d="M76 426h289q2 -88 43 -136t114.5 -48t115.5 48t42 136v1004h287v-1004q0 -207 -124 -323.5t-320.5 -116.5t-321.5 116.5t-125 323.5z" />
<glyph unicode="K" horiz-adv-x="1380" d="M154 0v1430h288v-639l516 639h377l-620 -717l620 -713h-374l-519 635v-635h-288z" />
<glyph unicode="L" horiz-adv-x="942" d="M154 0v1430h288v-1211h459v-219h-747z" />
<glyph unicode="M" horiz-adv-x="1865" d="M154 0v1430h321l459 -1059l459 1059h319v-1430h-287v903l-389 -903h-207l-387 899v-899h-288z" />
<glyph unicode="N" horiz-adv-x="1531" d="M154 0v1434h288l648 -992v992h288v-1434h-288l-648 991v-991h-288z" />
<glyph unicode="O" horiz-adv-x="1609" d="M74 717.5q0 318.5 212 525.5t520 207t519 -207t211 -525.5t-211 -525t-520 -206.5t-520 206.5t-211 525zM367 718q0 -212 121.5 -340t316 -128t315.5 128t121 341t-121 340t-315.5 127t-316 -128t-121.5 -340z" />
<glyph unicode="P" horiz-adv-x="1259" d="M154 0v1430h526q248 0 382 -124t134 -292t-109 -297q-55 -68 -160.5 -108t-246.5 -40h-238v-569h-288zM442 791h238q109 0 166 56t57 152.5t-57.5 152.5t-165.5 56h-238v-417z" />
<glyph unicode="Q" horiz-adv-x="1617" d="M74 717.5q0 318.5 212 525.5t520 207t519 -207t211 -524q0 -188 -79 -344t-218 -254l317 -369h-356l-211 256q-94 -22 -184 -22q-309 0 -520 206.5t-211 525zM367 718q0 -212 121.5 -340t316 -128t315.5 128t121 341t-121 340t-315.5 127t-316 -128t-121.5 -340z" />
<glyph unicode="R" horiz-adv-x="1329" d="M154 0v1430h526q248 0 382 -124t134 -307q0 -135 -82 -251.5t-258 -159.5l365 -588h-342l-342 569h-95v-569h-288zM442 791h238q109 0 166 56t57 152.5t-57.5 152.5t-165.5 56h-238v-417z" />
<glyph unicode="S" horiz-adv-x="1277" d="M123 403h307q16 -188 215 -188q98 0 155.5 51t57.5 136t-75.5 134.5t-183 74t-216.5 59.5t-184.5 122t-75.5 230q0 195 141.5 311.5t363.5 116.5t357 -101.5t148 -308.5h-316q-8 82 -61.5 130.5t-139.5 48.5t-140 -44.5t-54 -122t40 -121.5t105.5 -67.5t143 -42 t155.5 -45t143.5 -65.5t105.5 -114t40 -181q0 -176 -140.5 -303t-372.5 -127t-375.5 109.5t-143.5 307.5z" />
<glyph unicode="T" horiz-adv-x="1196" d="M70 1208v222h1058v-222h-387v-1208h-286v1208h-385z" />
<glyph unicode="U" horiz-adv-x="1452" d="M150 549v881h288v-881q0 -147 75 -223t214 -76t215 75.5t76 223.5v881h287v-881q0 -270 -170 -416.5t-414 -146.5t-407.5 145.5t-163.5 417.5z" />
<glyph unicode="V" horiz-adv-x="1452" d="M29 1430h305l391 -1141l391 1141h307l-524 -1430h-348z" />
<glyph unicode="W" horiz-adv-x="2088" d="M27 1430h307l274 -1104l289 1104h326l272 -1094l258 1094h309l-413 -1430h-328l-277 997l-284 -997h-328z" />
<glyph unicode="X" horiz-adv-x="1425" d="M102 0l449 715l-449 715h326l295 -472l276 472h324l-446 -715l446 -715h-326l-295 471l-274 -471h-326z" />
<glyph unicode="Y" horiz-adv-x="1316" d="M31 1430h323l305 -674l304 674h323l-483 -938v-492h-289v492z" />
<glyph unicode="Z" horiz-adv-x="1179" d="M102 0v221l643 987h-643v222h975v-222l-643 -987h643v-221h-975z" />
<glyph unicode="[" horiz-adv-x="1017" d="M276 -371v2310h515v-235h-244v-1839h244v-236h-515z" />
<glyph unicode="\" horiz-adv-x="1550" d="M354 1939h281l582 -2310h-279z" />
<glyph unicode="]" horiz-adv-x="1013" d="M225 -135h244v1839h-244v235h514v-2310h-514v236z" />
<glyph unicode="^" horiz-adv-x="1392" d="M68 342l491 1092h277l489 -1092h-295l-334 752l-336 -752h-292z" />
<glyph unicode="_" horiz-adv-x="1617" d="M219 -84h1202v-272h-1202v272z" />
<glyph unicode="`" horiz-adv-x="555" d="M20 1430v233l472 -246v-203z" />
<glyph unicode="a" d="M74 569q0 256 151.5 419t385 163t356.5 -193v177h286v-1135h-286v190q-129 -207 -357 -207l-2 1q-230 0 -382 164.5t-152 420.5zM367 569.5q0 -155.5 90 -246t209.5 -90.5t210 89.5t90.5 245t-90.5 244.5t-211 89t-209.5 -88t-89 -243.5z" />
<glyph unicode="b" d="M154 0v1516h288v-558q121 193 354.5 193t385 -163t151.5 -420t-151.5 -420.5t-382 -163.5t-357.5 206v-190h-288zM442 567.5q0 -155.5 89.5 -245t210 -89.5t209.5 90.5t89 246t-89 243.5t-209.5 88t-210 -89t-89.5 -244.5z" />
<glyph unicode="c" horiz-adv-x="1228" d="M74 567q0 264 155.5 424t403.5 160q207 0 346 -100.5t186 -284.5h-311q-55 141 -221 141q-125 0 -195.5 -91t-70.5 -248.5t70.5 -249t195.5 -91.5q164 0 221 144h311q-49 -178 -189 -282.5t-343 -104.5q-248 0 -403.5 159.5t-155.5 423.5z" />
<glyph unicode="d" d="M74 569q0 256 151.5 419t385 163t356.5 -193v558h286v-1516h-286v190q-129 -207 -357 -207l-2 1q-230 0 -382 164.5t-152 420.5zM367 569.5q0 -155.5 90 -246t209.5 -90.5t210 89.5t90.5 245t-90.5 244.5t-211 89t-209.5 -88t-89 -243.5z" />
<glyph unicode="e" horiz-adv-x="1277" d="M74 569.5q0 264.5 156.5 423t405.5 158.5t408.5 -154.5t159.5 -412.5q0 -59 -8 -111h-827q10 -111 81.5 -178.5t182.5 -67.5q150 0 221 123h311q-49 -162 -190 -264t-342 -102q-248 0 -403.5 160.5t-155.5 425zM369 659h536q-6 113 -83 180.5t-185.5 67.5t-181 -67.5 t-86.5 -180.5z" />
<glyph unicode="f" horiz-adv-x="684" d="M49 899v236h123v63q0 205 108.5 299t342.5 94v-241q-90 0 -127 -35t-37 -117v-63h180v-236h-180v-899h-287v899h-123z" />
<glyph unicode="g" d="M74 569q0 256 151.5 419t385 163t356.5 -193v177h286v-1143q0 -244 -143 -398.5t-402 -154.5t-412 107.5t-173 306.5h283q27 -76 102.5 -120t190 -44t191.5 75.5t77 227.5v198q-129 -207 -357 -207q-1 0 -2 1q-229 0 -381.5 164.5t-152.5 420.5zM367 569.5 q0 -155.5 90 -246t209.5 -90.5t210 89.5t90.5 245t-90.5 244.5t-211 89t-209.5 -88t-89 -243.5z" />
<glyph unicode="h" horiz-adv-x="1378" d="M154 0v1516h288v-551q109 186 353 186q195 0 317.5 -128t122.5 -355v-668h-287v627q0 133 -67.5 203.5t-184 70.5t-185.5 -70.5t-69 -203.5v-627h-288z" />
<glyph unicode="i" horiz-adv-x="595" d="M123 1423.5q0 73.5 51 124.5t124 51t124 -51t51 -124.5t-51 -125t-124 -51.5t-124 51.5t-51 125zM154 0v1135h288v-1135h-288z" />
<glyph unicode="j" horiz-adv-x="595" d="M-47 -297h82q66 0 92.5 23.5t26.5 76.5v1332h288v-1332q0 -184 -94 -264t-268 -80h-127v244zM123 1423.5q0 73.5 51 124.5t124 51t124 -51t51 -124.5t-51 -125t-124 -51.5t-124 51.5t-51 125z" />
<glyph unicode="k" horiz-adv-x="1228" d="M154 0v1516h288v-867l383 486h392l-504 -574l504 -561h-386l-389 473v-473h-288z" />
<glyph unicode="l" horiz-adv-x="595" d="M154 0v1516h288v-1516h-288z" />
<glyph unicode="m" horiz-adv-x="2170" d="M154 0v1135h288v-170q109 186 353 186q129 0 230 -59.5t157 -169.5q59 106 162.5 167.5t232.5 61.5q203 0 327 -127t124 -356v-668h-287v627q0 133 -67.5 203.5t-184.5 70.5t-185.5 -70.5t-68.5 -203.5v-627h-287v627q0 133 -67.5 203.5t-184 70.5t-185.5 -70.5 t-69 -203.5v-627h-288z" />
<glyph unicode="n" horiz-adv-x="1378" d="M154 0v1135h288v-170q109 186 353 186q195 0 317.5 -128t122.5 -355v-668h-287v627q0 133 -67.5 203.5t-184 70.5t-185.5 -70.5t-69 -203.5v-627h-288z" />
<glyph unicode="o" horiz-adv-x="1320" d="M76 569q0 262 168 422t416.5 160t416.5 -160t168 -422t-169 -423.5t-418.5 -161.5t-415.5 161.5t-166 423.5zM369 567q0 -164 84 -252t204.5 -88t207.5 89.5t87 252t-86 250.5t-207.5 88t-205.5 -88t-84 -252z" />
<glyph unicode="p" d="M154 -541v1676h288v-177q121 193 354.5 193t385 -163t151.5 -420t-151.5 -420.5t-382 -163.5t-357.5 206v-731h-288zM442 567.5q0 -155.5 89.5 -245t210 -89.5t209.5 90.5t89 246t-89 243.5t-209.5 88t-210 -89t-89.5 -244.5z" />
<glyph unicode="q" d="M74 569q0 256 151.5 419t385 163t356.5 -193v177h286v-1676h-286v731q-129 -207 -357 -207q-1 0 -2 1q-229 0 -381.5 164.5t-152.5 420.5zM367 569.5q0 -155.5 90 -246t209.5 -90.5t210 89.5t90.5 245t-90.5 244.5t-211 89t-209.5 -88t-89 -243.5z" />
<glyph unicode="r" horiz-adv-x="825" d="M154 0v1135h288v-201q115 217 332 217v-295h-72q-129 0 -194.5 -64.5t-65.5 -222.5v-569h-288z" />
<glyph unicode="s" horiz-adv-x="1114" d="M88 352h295q16 -143 182 -143q80 0 129 36t49 94t-67.5 92t-163.5 52.5t-191.5 45t-163 95t-67.5 179.5q0 147 125 247.5t332 100.5t332 -99.5t133 -269.5h-295q-12 143 -176 144q-82 0 -127 -33t-45 -90.5t67.5 -90t163.5 -51t191.5 -46t163 -98.5t67.5 -187 q0 -154 -130 -250t-332 -96t-331 95t-141 273z" />
<glyph unicode="t" horiz-adv-x="802" d="M66 899v236h120v280h289v-280h254v-236h-254v-555q0 -55 26.5 -78.5t92.5 -23.5h137v-242h-182q-174 0 -268.5 80t-94.5 264v555h-120z" />
<glyph unicode="u" horiz-adv-x="1378" d="M143 469v666h287v-625q0 -133 67.5 -205t184.5 -72t185.5 72t68.5 205v625h289v-1135h-289v172q-109 -186 -354 -186q-193 0 -316 128t-123 355z" />
<glyph unicode="v" horiz-adv-x="1226" d="M14 1135h308l292 -887l291 887h307l-417 -1135h-363z" />
<glyph unicode="w" horiz-adv-x="1728" d="M14 1135h291l209 -863l209 863h303l205 -861l209 861h276l-348 -1135h-307l-195 762l-196 -762h-308z" />
<glyph unicode="x" horiz-adv-x="1069" d="M14 0l367 553l-367 582h324l217 -344l209 344h293l-369 -555l367 -580h-324l-217 342l-209 -342h-291z" />
<glyph unicode="y" horiz-adv-x="1247" d="M14 1135h324l289 -807l305 807h301l-709 -1672h-301l236 557z" />
<glyph unicode="z" horiz-adv-x="1007" d="M96 0v238l479 661h-479v236h813v-236l-477 -661h477v-238h-813z" />
<glyph unicode="{" horiz-adv-x="1097" d="M213 709v106q201 20 201 234q0 70 -17.5 197.5t-17.5 201.5q0 401 264 520h293v-33q-123 -45 -197.5 -182t-74.5 -340q0 -84 16 -207t16 -186q0 -215 -215 -256v-4q215 -41 215 -256q0 -63 -16 -186t-16 -207q0 -203 74.5 -340.5t197.5 -182.5v-32h-293 q-264 119 -264 520q0 74 17.5 202t17.5 197q0 211 -201 234z" />
<glyph unicode="|" horiz-adv-x="718" d="M215 -246v1901h289v-1901h-289z" />
<glyph unicode="}" horiz-adv-x="1075" d="M164 -412q123 45 197.5 182.5t74.5 340.5q0 84 -16.5 206.5t-16.5 186.5q0 215 215 256v4q-215 41 -215 256q0 63 16.5 186t16.5 207q0 203 -74.5 340t-197.5 182v33h291q264 -119 264 -520q0 -74 -17.5 -202t-17.5 -205.5t45 -146.5t156 -79v-106q-111 -12 -156 -80 t-45 -145.5t17.5 -205.5t17.5 -202q0 -401 -264 -520h-291v32z" />
<glyph unicode="~" horiz-adv-x="1206" d="M68 459q63 387 358 387q92 0 204.5 -66.5t166 -66.5t90.5 33.5t45 97.5h207q-63 -387 -361 -387q-92 0 -204.5 66.5t-166 66.5t-90 -34t-45.5 -97h-204z" />
<glyph unicode="&#xa1;" horiz-adv-x="899" d="M287 987.5q0 69.5 48 116.5t116.5 47t116.5 -47t48 -116.5t-48 -117t-116.5 -47.5t-116.5 47.5t-48 117zM291 -387l33 1057h241l33 -1057h-307z" />
<glyph unicode="&#xa2;" horiz-adv-x="1355" d="M125 528.5q0 221.5 122 365.5t349 165v174h147v-174q178 -18 295 -119.5t129 -255.5h-266q-43 145 -229 145q-127 0 -200 -79.5t-73 -221t73 -221.5t200 -80q186 0 229 144h266q-12 -152 -128.5 -254.5t-295.5 -120.5v-174h-147v174q-227 20 -349 165.5t-122 367z" />
<glyph unicode="&#xa3;" horiz-adv-x="1339" d="M80 604v197h168q-39 129 -39 241q0 219 133 339t357.5 120t342 -127t119.5 -323h-264q0 213 -203 213q-100 0 -156.5 -57.5t-56.5 -165t43 -240.5h389v-197h-333q4 -33 4 -49q0 -197 -138 -332h725v-229h-993l-45 149q92 88 134 181.5t42 232.5q0 14 -4 47h-225z" />
<glyph unicode="&#xa4;" horiz-adv-x="1150" d="M123 442l117 117q-63 88 -63.5 213t65.5 217l-119 119l119 121l131 -131q92 41 202.5 41t202.5 -41l131 131l119 -121l-119 -119q66 -92 66 -215t-64 -215l117 -117l-119 -118l-127 127q-94 -45 -208.5 -45t-204.5 45l-127 -127zM399 773q0 -99 51.5 -152.5t123 -53.5 t124 53.5t52.5 152.5t-51.5 152.5t-124 53.5t-124 -53.5t-51.5 -152.5z" />
<glyph unicode="&#xa5;" horiz-adv-x="1316" d="M31 1430h323l305 -674l304 674h323l-305 -592h231v-199l-333 -2l-76 -145v-7h409v-200h-409v-285h-289v285h-410v200h410v7l-76 145l-334 2v199h232z" />
<glyph unicode="&#xa6;" horiz-adv-x="718" d="M215 -246v815h289v-815h-289zM215 840v815h289v-815h-289z" />
<glyph unicode="&#xa7;" horiz-adv-x="1191" d="M74 500q0 221 227 321q-156 106 -156 260t124 259.5t325 105.5t324.5 -95.5t123.5 -267.5h-292q-12 164 -158 164q-156 0 -156 -133q0 -68 62.5 -113t250 -118.5t279.5 -162.5t92 -220q0 -207 -229 -322q158 -109 158 -261.5t-124 -257.5t-326 -105t-324.5 95t-122.5 267 h292q12 -164 156 -164q156 0 156 133q0 68 -62.5 114t-250 118.5t-278.5 162t-91 220.5zM375 500q0 -80 61.5 -134.5t161.5 -54.5t160.5 54.5t60.5 134.5t-61.5 134t-161.5 54t-160.5 -54t-60.5 -134z" />
<glyph unicode="&#xa8;" horiz-adv-x="690" d="M20 1405q0 57 39 96t96.5 39t96.5 -39t39 -96t-39 -96t-96.5 -39t-96.5 39t-39 96zM399 1405q0 57 39 96t96.5 39t96.5 -39t39 -96t-39 -96t-96.5 -39t-96.5 39t-39 96z" />
<glyph unicode="&#xa9;" horiz-adv-x="1615" d="M90 717.5q0 322.5 199.5 527.5t518 205t517.5 -205t199 -527.5t-200 -528t-517.5 -205.5t-517 205.5t-199.5 528zM203 718q0 -288 162.5 -461t441 -173t442.5 173t164 461t-164 459t-442.5 171t-441 -171t-162.5 -459zM350 719q0 211 126 338t305.5 127t292 -81 t151.5 -226h-252q-41 109 -174 108q-96 0 -151.5 -70.5t-55.5 -195.5t55 -196.5t152 -71.5q125 0 174 108h252q-39 -139 -153 -223t-291 -84t-304 128t-127 339z" />
<glyph unicode="&#xaa;" horiz-adv-x="946" d="M57 1083.5q0 159.5 101.5 264t260.5 104.5t232 -125v115h221v-721h-221v117q-72 -127 -231.5 -127t-261 106.5t-101.5 266zM285 1081.5q0 -96.5 54 -150.5t129 -54t129 53t54 150.5t-54 151.5t-129 54t-129 -54t-54 -150.5z" />
<glyph unicode="&#xab;" horiz-adv-x="1064" d="M92 604l182 359h269l-187 -359l187 -358h-269zM512 604l182 359h269l-187 -359l187 -358h-269z" />
<glyph unicode="&#xac;" horiz-adv-x="1554" d="M74 676v221h1364v-498h-287v277h-1077z" />
<glyph unicode="&#xad;" horiz-adv-x="1193" d="M162 610v240h870v-240h-870z" />
<glyph unicode="&#xae;" horiz-adv-x="1615" d="M90 717.5q0 322.5 206 527.5t534.5 205t534.5 -205t206 -527.5t-206 -528t-534.5 -205.5t-534.5 205.5t-206 528zM203 718q0 -288 170 -461t458.5 -173t457.5 173t169 461t-169 459t-458.5 171t-458.5 -171t-169 -459zM530 274v916h334q158 0 244 -80t86 -181.5 t-53.5 -176t-165.5 -101.5l233 -377h-215l-219 365h-63v-365h-181zM711 778h153q70 0 107 36t37 99.5t-37 99.5t-107 36h-153v-271z" />
<glyph unicode="&#xaf;" horiz-adv-x="823" d="M20 1294v205h783v-205h-783z" />
<glyph unicode="&#xb0;" horiz-adv-x="909" d="M55 1078q0 167 110.5 266.5t289 99.5t289 -99.5t110.5 -266.5t-111.5 -267t-289 -100t-288 100t-110.5 267zM279 1078.5q0 -99.5 50 -153t122.5 -53.5t125 53.5t52.5 153t-51.5 153.5t-124 54t-123.5 -54t-51 -153.5z" />
<glyph unicode="&#xb1;" horiz-adv-x="1404" d="M180 240v258h385v245h-385v258h385v265h275v-265h385v-258h-385v-245h385v-258h-1045z" />
<glyph unicode="&#xb2;" horiz-adv-x="737" d="M66 1227q2 106 82.5 169.5t217 63.5t216.5 -70.5t80 -153.5t-46.5 -136t-152.5 -117l-156 -88h350v-174h-587v168l233 160q127 84 127 165q0 37 -20.5 59.5t-53.5 22.5q-63 0 -69 -69h-221z" />
<glyph unicode="&#xb3;" horiz-adv-x="731" d="M35 948h219q12 -78 94 -78q37 0 61.5 21.5t24.5 55.5t-25.5 54.5t-68.5 20.5h-59v137h51q92 0 92 69.5t-81 69.5t-91 -67h-207q4 100 89 164.5t221.5 64.5t221.5 -65.5t85 -155.5q0 -115 -123 -152v-6q131 -47 131 -163q0 -90 -90.5 -147.5t-228.5 -57.5t-226 63.5 t-90 171.5z" />
<glyph unicode="&#xb4;" horiz-adv-x="512" d="M20 1214v203l472 246v-233z" />
<glyph unicode="&#xb5;" horiz-adv-x="1388" d="M154 -541v1676h286v-625q0 -133 67.5 -205t184.5 -72t185.5 72t68.5 205v625h289v-1135h-289v172q-109 -186 -354 -186q-84 0 -152 39v-566h-286z" />
<glyph unicode="&#xb6;" horiz-adv-x="1363" d="M66 999.5q0 186.5 121.5 308.5t363.5 122h659v-1430h-243v1208h-133v-1208h-244v569h-39q-242 0 -363.5 122t-121.5 308.5z" />
<glyph unicode="&#xb7;" horiz-adv-x="530" d="M102 678q0 70 47.5 117t116 47t116.5 -47t48 -117t-48 -117t-116.5 -47t-116 47t-47.5 117z" />
<glyph unicode="&#xb8;" horiz-adv-x="604" d="M20 -373h230q61 0 88 11.5t27 54.5t-26 53t-89 10h-113v258h180v-102q115 0 191 -55.5t76 -164t-77 -171t-188 -62.5h-299v168z" />
<glyph unicode="&#xb9;" horiz-adv-x="464" d="M41 1274v168h336v-721h-219v553h-117z" />
<glyph unicode="&#xba;" horiz-adv-x="927" d="M57 1082q0 169 114 269.5t294 100.5t292.5 -100.5t112.5 -269.5t-114.5 -270t-292.5 -101t-292 101t-114 270zM285 1082.5q0 -101.5 52 -156t126 -54.5t127 54.5t53 155t-53 155.5t-127 55t-126 -54t-52 -155.5z" />
<glyph unicode="&#xbb;" horiz-adv-x="1064" d="M102 246l189 358l-189 359h271l180 -359l-180 -358h-271zM522 246l189 358l-189 359h271l180 -359l-180 -358h-271z" />
<glyph unicode="&#xbc;" horiz-adv-x="1495" d="M76 1274v168h336v-721h-219v553h-117zM154 0l784 1434h274l-784 -1434h-274zM727 133v119l295 471h315v-461h88v-129h-88v-133h-221v133h-389zM942 262h182v316z" />
<glyph unicode="&#xbd;" horiz-adv-x="1550" d="M76 1274v168h336v-721h-219v553h-117zM154 0l772 1434h274l-772 -1434h-274zM848 504q2 106 83 169.5t217 63.5t216 -70.5t80 -153.5t-46 -136t-153 -117l-155 -88h350v-174h-588v168l233 160q127 84 127 166q0 37 -20.5 59t-52.5 22q-63 0 -70 -69h-221z" />
<glyph unicode="&#xbe;" horiz-adv-x="1660" d="M86 948h219q12 -78 94 -78q37 0 61.5 21.5t24.5 55.5t-25.5 54.5t-68.5 20.5h-59v137h51q92 0 92 69.5t-81 69.5t-91 -67h-207q4 100 89 164.5t221.5 64.5t221.5 -65.5t85 -155.5q0 -115 -123 -152v-6q131 -47 131 -163q0 -90 -90 -147.5t-228.5 -57.5t-226.5 63.5 t-90 171.5zM346 0l807 1434h274l-806 -1434h-275zM918 133v119l292 471h316v-461h88v-129h-88v-133h-219v133h-389zM1130 262h185v316z" />
<glyph unicode="&#xbf;" horiz-adv-x="1312" d="M180 44q0 210 119 304t352 98v224h271v-414h-117q-176 0 -261 -45t-85 -176q0 -90 52 -143.5t143 -53.5t143.5 52.5t52.5 142.5h272q4 -191 -122 -311.5t-342 -120.5t-347 116.5t-131 326.5zM614 987.5q0 69.5 48.5 116.5t117 47t116.5 -47t48 -116.5t-48 -117 t-116.5 -47.5t-117 47.5t-48.5 117z" />
<glyph unicode="&#xc0;" horiz-adv-x="1443" d="M45 0l506 1434h342l504 -1434h-305l-93 268h-557l-92 -268h-305zM473 1726v234l471 -246v-203zM518 489h408l-205 596z" />
<glyph unicode="&#xc1;" horiz-adv-x="1443" d="M45 0l506 1434h342l504 -1434h-305l-93 268h-557l-92 -268h-305zM473 1511v203l471 246v-234zM518 489h408l-205 596z" />
<glyph unicode="&#xc2;" horiz-adv-x="1443" d="M45 0l506 1434h342l504 -1434h-305l-93 268h-557l-92 -268h-305zM418 1516v210l305 170l303 -170v-210l-303 178zM518 489h408l-205 596z" />
<glyph unicode="&#xc3;" horiz-adv-x="1443" d="M45 0l506 1434h342l504 -1434h-305l-93 268h-557l-92 -268h-305zM358 1544q41 268 250 268q63 0 139 -45t113 -45q76 0 88 88h150q-41 -268 -250 -268q-63 0 -139 46t-113 46q-76 0 -90 -90h-148zM518 489h408l-205 596z" />
<glyph unicode="&#xc4;" horiz-adv-x="1443" d="M45 0l506 1434h342l504 -1434h-305l-93 268h-557l-92 -268h-305zM397 1702q0 57 39 96t96.5 39t96.5 -39t39 -96t-39 -96t-96.5 -39t-96.5 39t-39 96zM518 489h408l-205 596zM776 1702q0 57 39 96t96.5 39t96.5 -39t39 -96t-39 -96t-96.5 -39t-96.5 39t-39 96z" />
<glyph unicode="&#xc5;" horiz-adv-x="1443" d="M45 0l506 1434h342l504 -1434h-305l-93 268h-557l-92 -268h-305zM487 1765.5q0 106.5 68 171t168 64.5t166.5 -64.5t66.5 -171t-66.5 -171t-166.5 -64.5t-168 64.5t-68 171zM518 489h408l-205 596zM621 1767q0 -45 29.5 -73.5t72.5 -28.5t72.5 28.5t29.5 73.5t-29.5 74 t-72.5 29t-72.5 -29t-29.5 -74z" />
<glyph unicode="&#xc6;" horiz-adv-x="1943" d="M23 0l757 1434h1024v-222h-536v-374h475v-222h-475v-395h536v-221h-825v268h-504l-139 -268h-313zM590 489h389v750z" />
<glyph unicode="&#xc7;" horiz-adv-x="1574" d="M74 732q0 304 212 511t519 207q233 0 414.5 -119t259.5 -334h-346q-97 189 -328 189q-195 0 -316.5 -128t-121.5 -340t121.5 -340t316.5 -128q229 0 328 188h346q-72 -195 -228.5 -310.5t-361.5 -135.5v-80q115 0 190.5 -55.5t75.5 -164t-77 -171t-187 -62.5h-299v168 h229q61 0 88 11.5t27 54.5t-25.5 53t-89.5 10h-112v238q-274 33 -454.5 233.5t-180.5 504.5z" />
<glyph unicode="&#xc8;" horiz-adv-x="1120" d="M154 0v1434h825v-222h-537v-374h476v-222h-476v-395h537v-221h-825zM311 1726v234l471 -246v-203z" />
<glyph unicode="&#xc9;" horiz-adv-x="1120" d="M154 0v1434h825v-222h-537v-374h476v-222h-476v-395h537v-221h-825zM311 1511v203l471 246v-234z" />
<glyph unicode="&#xca;" horiz-adv-x="1120" d="M154 0v1434h825v-222h-537v-374h476v-222h-476v-395h537v-221h-825zM256 1516v210l305 170l303 -170v-210l-303 178z" />
<glyph unicode="&#xcb;" horiz-adv-x="1120" d="M154 0v1434h825v-222h-537v-374h476v-222h-476v-395h537v-221h-825zM233 1702q0 57 39 96t96.5 39t96.5 -39t39 -96t-39 -96t-96.5 -39t-96.5 39t-39 96zM612 1702q0 57 39 96t96.5 39t96.5 -39t39 -96t-39 -96t-96.5 -39t-96.5 39t-39 96z" />
<glyph unicode="&#xcc;" horiz-adv-x="595" d="M49 1726v234l471 -246v-203zM154 0v1430h288v-1430h-288z" />
<glyph unicode="&#xcd;" horiz-adv-x="595" d="M49 1511v203l471 246v-234zM154 0v1430h288v-1430h-288z" />
<glyph unicode="&#xce;" horiz-adv-x="595" d="M-6 1516v210l305 170l303 -170v-210l-303 178zM154 0v1430h288v-1430h-288z" />
<glyph unicode="&#xcf;" horiz-adv-x="595" d="M-27 1702q0 57 39 96t96.5 39t96.5 -39t39 -96t-39 -96t-96.5 -39t-96.5 39t-39 96zM154 0v1430h288v-1430h-288zM352 1702q0 57 39 96t96.5 39t96.5 -39t39 -96t-39 -96t-96.5 -39t-96.5 39t-39 96z" />
<glyph unicode="&#xd0;" horiz-adv-x="1492" d="M29 578v270h137v582h485q344 0 556 -197t212 -520.5t-212 -518t-556 -194.5h-485v578h-137zM455 219h196q225 0 350 133t125 360.5t-124.5 360.5t-350.5 133h-196v-358h331v-270h-331v-359z" />
<glyph unicode="&#xd1;" horiz-adv-x="1531" d="M154 0v1434h288l648 -992v992h288v-1434h-288l-648 991v-991h-288zM401 1544q41 268 250 268q63 0 139 -45t113 -45q76 0 88 88h150q-41 -268 -250 -268q-63 0 -139 46t-113 46q-76 0 -90 -90h-148z" />
<glyph unicode="&#xd2;" horiz-adv-x="1609" d="M74 717.5q0 318.5 212 525.5t520 207t519 -207t211 -525.5t-211 -525t-520 -206.5t-520 206.5t-211 525zM367 718q0 -212 121.5 -340t316 -128t315.5 128t121 341t-121 340t-315.5 127t-316 -128t-121.5 -340zM557 1726v234l471 -246v-203z" />
<glyph unicode="&#xd3;" horiz-adv-x="1609" d="M74 717.5q0 318.5 212 525.5t520 207t519 -207t211 -525.5t-211 -525t-520 -206.5t-520 206.5t-211 525zM367 718q0 -212 121.5 -340t316 -128t315.5 128t121 341t-121 340t-315.5 127t-316 -128t-121.5 -340zM557 1511v203l471 246v-234z" />
<glyph unicode="&#xd4;" horiz-adv-x="1609" d="M74 717.5q0 318.5 212 525.5t520 207t519 -207t211 -525.5t-211 -525t-520 -206.5t-520 206.5t-211 525zM367 718q0 -212 121.5 -340t316 -128t315.5 128t121 341t-121 340t-315.5 127t-316 -128t-121.5 -340zM500 1516v210l305 170l303 -170v-210l-303 178z" />
<glyph unicode="&#xd5;" horiz-adv-x="1609" d="M74 717.5q0 318.5 212 525.5t520 207t519 -207t211 -525.5t-211 -525t-520 -206.5t-520 206.5t-211 525zM367 718q0 -212 121.5 -340t316 -128t315.5 128t121 341t-121 340t-315.5 127t-316 -128t-121.5 -340zM440 1544q41 268 250 268q63 0 139 -45t113 -45q76 0 88 88 h150q-41 -268 -250 -268q-63 0 -139 46t-113 46q-76 0 -90 -90h-148z" />
<glyph unicode="&#xd6;" horiz-adv-x="1609" d="M74 717.5q0 318.5 212 525.5t520 207t519 -207t211 -525.5t-211 -525t-520 -206.5t-520 206.5t-211 525zM367 718q0 -212 121.5 -340t316 -128t315.5 128t121 341t-121 340t-315.5 127t-316 -128t-121.5 -340zM479 1702q0 57 39 96t96.5 39t96.5 -39t39 -96t-39 -96 t-96.5 -39t-96.5 39t-39 96zM858 1702q0 57 39 96t96.5 39t96 -39t38.5 -96t-38.5 -96t-96 -39t-96.5 39t-39 96z" />
<glyph unicode="&#xd7;" horiz-adv-x="1388" d="M209 440l297 297l-289 291l186 186l291 -288l289 288l186 -186l-288 -289l299 -301l-189 -186l-299 299l-297 -297z" />
<glyph unicode="&#xd8;" horiz-adv-x="1609" d="M51 0l205 223q-182 203 -182 508t212 512t519 207q248 0 442 -139l113 123h199l-203 -224q180 -201 180 -506t-211 -511.5t-520 -206.5q-246 0 -440 139l-115 -125h-199zM367 719q0 -168 79 -287l617 676q-106 78 -258 78q-195 0 -316.5 -128t-121.5 -339zM549 326 q106 -76 256 -76q195 0 315.5 128t120.5 341q0 166 -76 282z" />
<glyph unicode="&#xd9;" horiz-adv-x="1452" d="M150 549v881h288v-881q0 -147 75 -223t214 -76t215 75.5t76 223.5v881h287v-881q0 -270 -170 -416.5t-414 -146.5t-407.5 145.5t-163.5 417.5zM479 1726v234l471 -246v-203z" />
<glyph unicode="&#xda;" horiz-adv-x="1452" d="M150 549v881h288v-881q0 -147 75 -223t214 -76t215 75.5t76 223.5v881h287v-881q0 -270 -170 -416.5t-414 -146.5t-407.5 145.5t-163.5 417.5zM479 1511v203l471 246v-234z" />
<glyph unicode="&#xdb;" horiz-adv-x="1452" d="M150 549v881h288v-881q0 -147 75 -223t214 -76t215 75.5t76 223.5v881h287v-881q0 -270 -170 -416.5t-414 -146.5t-407.5 145.5t-163.5 417.5zM422 1516v210l305 170l303 -170v-210l-303 178z" />
<glyph unicode="&#xdc;" horiz-adv-x="1452" d="M150 549v881h288v-881q0 -147 75 -223t214 -76t215 75.5t76 223.5v881h287v-881q0 -270 -170 -416.5t-414 -146.5t-407.5 145.5t-163.5 417.5zM401 1702q0 57 39 96t96.5 39t96.5 -39t39 -96t-39 -96t-96.5 -39t-96.5 39t-39 96zM780 1702q0 57 39 96t96.5 39t96.5 -39 t39 -96t-39 -96t-96.5 -39t-96.5 39t-39 96z" />
<glyph unicode="&#xdd;" horiz-adv-x="1316" d="M31 1430h323l305 -674l304 674h323l-483 -938v-492h-289v492zM412 1511v203l471 246v-234z" />
<glyph unicode="&#xde;" horiz-adv-x="1259" d="M154 0v1434h282v-285h244q248 0 382 -124t134 -293t-109 -298q-55 -68 -160.5 -107.5t-246.5 -39.5h-238v-287h-288zM442 508h238q109 0 166 56.5t57 152.5t-57.5 153.5t-165.5 57.5h-238v-420z" />
<glyph unicode="&#xdf;" horiz-adv-x="1458" d="M154 0v1081q0 211 132 333t356 122t345 -107.5t121 -260t-162 -248.5l182 -107q152 -88 216.5 -183.5t64.5 -232.5q0 -182 -128 -297.5t-304 -115.5t-293 106.5t-119 286.5h234q8 -68 50 -106t109.5 -38t111.5 49.5t44 111t-32.5 104.5t-108.5 88l-314 186v125l52 29 q100 59 100 176q0 78 -51 131t-131 53t-134.5 -55t-54.5 -148l2 -1083h-288z" />
<glyph unicode="&#xe0;" d="M74 569q0 256 151.5 419t385 163t356.5 -193v177h286v-1135h-286v190q-129 -207 -358.5 -206.5t-382 165t-152.5 420.5zM367 569.5q0 -155.5 90 -246t209.5 -90.5t210 89.5t90.5 245t-90.5 244.5t-211 89t-209.5 -88t-89 -243.5zM455 1430v233l471 -246v-203z" />
<glyph unicode="&#xe1;" d="M74 569q0 256 151.5 419t385 163t356.5 -193v177h286v-1135h-286v190q-129 -207 -358.5 -206.5t-382 165t-152.5 420.5zM367 569.5q0 -155.5 90 -246t209.5 -90.5t210 89.5t90.5 245t-90.5 244.5t-211 89t-209.5 -88t-89 -243.5zM455 1214v203l471 246v-233z" />
<glyph unicode="&#xe2;" d="M74 569q0 256 151.5 419t385 163t356.5 -193v177h286v-1135h-286v190q-129 -207 -358.5 -206.5t-382 165t-152.5 420.5zM367 569.5q0 -155.5 90 -246t209.5 -90.5t210 89.5t90.5 245t-90.5 244.5t-211 89t-209.5 -88t-89 -243.5zM399 1219v211l306 169l303 -169v-211 l-303 178z" />
<glyph unicode="&#xe3;" d="M74 569q0 256 151.5 419t385 163t356.5 -193v177h286v-1135h-286v190q-129 -207 -358.5 -206.5t-382 165t-152.5 420.5zM340 1247q41 269 250 269q63 0 139 -45.5t113 -45.5q76 0 88 88h149q-41 -268 -250 -268q-63 0 -139 46t-112 46q-76 0 -91 -90h-147zM367 569.5 q0 -155.5 90 -246t209.5 -90.5t210 89.5t90.5 245t-90.5 244.5t-211 89t-209.5 -88t-89 -243.5z" />
<glyph unicode="&#xe4;" d="M74 569q0 256 151.5 419t385 163t356.5 -193v177h286v-1135h-286v190q-129 -207 -358.5 -206.5t-382 165t-152.5 420.5zM367 569.5q0 -155.5 90 -246t209.5 -90.5t210 89.5t90.5 245t-90.5 244.5t-211 89t-209.5 -88t-89 -243.5zM379 1405q0 57 39 96t96 39t96 -39 t39 -96t-39 -96t-96 -39t-96 39t-39 96zM758 1405q0 57 39 96t96 39t96 -39t39 -96t-39 -96t-96 -39t-96 39t-39 96z" />
<glyph unicode="&#xe5;" d="M74 569q0 256 151.5 419t385 163t356.5 -193v177h286v-1135h-286v190q-129 -207 -358.5 -206.5t-382 165t-152.5 420.5zM367 569.5q0 -155.5 90 -246t209.5 -90.5t210 89.5t90.5 245t-90.5 244.5t-211 89t-209.5 -88t-89 -243.5zM469 1468.5q0 106.5 67.5 171t168 64.5 t167 -64.5t66.5 -171t-66.5 -171t-167 -64.5t-168 64.5t-67.5 171zM602 1470.5q0 -45.5 30 -74t73 -28.5t72.5 28.5t29.5 74t-29.5 74t-72.5 28.5t-73 -28.5t-30 -74z" />
<glyph unicode="&#xe6;" horiz-adv-x="2238" d="M74 569q0 256 152.5 419t385 163t353.5 -178v162h286v-162q139 178 375 178t387.5 -158.5t151.5 -408.5q0 -59 -8 -111h-857q20 -121 103.5 -183.5t181.5 -62.5q166 0 232 123h311q-49 -162 -179 -264t-311 -102q-121 0 -227 52t-160 140v-176h-286v176 q-133 -193 -359.5 -192.5t-379 165t-152.5 420.5zM367 569.5q0 -155.5 90 -246t209.5 -90.5t210 89.5t90.5 245t-90.5 244.5t-211 89t-209.5 -88t-89 -243.5zM1300 659h568q-6 113 -82 180.5t-189.5 67.5t-196.5 -68.5t-100 -179.5z" />
<glyph unicode="&#xe7;" horiz-adv-x="1228" d="M74 581.5q0 249.5 155.5 409.5t403.5 160q207 0 346 -100.5t186 -284.5h-311q-55 141 -221 141q-125 0 -195.5 -91t-70.5 -248.5t70.5 -249t195.5 -91.5q164 0 221 144h311q-43 -158 -160.5 -260.5t-287.5 -122.5v-76q115 0 190.5 -55.5t75.5 -164t-77 -171t-187 -62.5 h-299v168h229q61 0 88 11.5t27 54.5t-25.5 53t-89.5 10h-112v234q-209 31 -336 186.5t-127 405z" />
<glyph unicode="&#xe8;" horiz-adv-x="1277" d="M74 569.5q0 264.5 156.5 423t405.5 158.5t408.5 -154.5t159.5 -412.5q0 -59 -8 -111h-827q10 -111 81.5 -178.5t182.5 -67.5q150 0 221 123h311q-49 -162 -190 -264t-342 -102q-248 0 -403.5 160.5t-155.5 425zM369 659h536q-6 113 -83 180.5t-185.5 67.5t-181 -67.5 t-86.5 -180.5zM391 1430v233l471 -246v-203z" />
<glyph unicode="&#xe9;" horiz-adv-x="1277" d="M74 569.5q0 264.5 156.5 423t405.5 158.5t408.5 -154.5t159.5 -412.5q0 -59 -8 -111h-827q10 -111 81.5 -178.5t182.5 -67.5q150 0 221 123h311q-49 -162 -190 -264t-342 -102q-248 0 -403.5 160.5t-155.5 425zM369 659h536q-6 113 -83 180.5t-185.5 67.5t-181 -67.5 t-86.5 -180.5zM391 1214v203l471 246v-233z" />
<glyph unicode="&#xea;" horiz-adv-x="1277" d="M74 569.5q0 264.5 156.5 423t405.5 158.5t408.5 -154.5t159.5 -412.5q0 -59 -8 -111h-827q10 -111 81.5 -178.5t182.5 -67.5q150 0 221 123h311q-49 -162 -190 -264t-342 -102q-248 0 -403.5 160.5t-155.5 425zM334 1219v211l305 169l303 -169v-211l-303 178zM369 659 h536q-6 113 -83 180.5t-185.5 67.5t-181 -67.5t-86.5 -180.5z" />
<glyph unicode="&#xeb;" horiz-adv-x="1277" d="M74 569.5q0 264.5 156.5 423t405.5 158.5t408.5 -154.5t159.5 -412.5q0 -59 -8 -111h-827q10 -111 81.5 -178.5t182.5 -67.5q150 0 221 123h311q-49 -162 -190 -264t-342 -102q-248 0 -403.5 160.5t-155.5 425zM313 1405q0 57 39 96t96.5 39t96.5 -39t39 -96t-39 -96 t-96.5 -39t-96.5 39t-39 96zM369 659h536q-6 113 -83 180.5t-185.5 67.5t-181 -67.5t-86.5 -180.5zM692 1405q0 57 39 96t96.5 39t96.5 -39t39 -96t-39 -96t-96.5 -39t-96.5 39t-39 96z" />
<glyph unicode="&#xec;" horiz-adv-x="595" d="M49 1430v233l471 -246v-203zM154 0v1135h288v-1135h-288z" />
<glyph unicode="&#xed;" horiz-adv-x="595" d="M49 1214v203l471 246v-233zM154 0v1135h288v-1135h-288z" />
<glyph unicode="&#xee;" horiz-adv-x="595" d="M-6 1219v211l305 169l303 -169v-211l-303 178zM154 0v1135h288v-1135h-288z" />
<glyph unicode="&#xef;" horiz-adv-x="595" d="M-27 1405q0 57 39 96t96.5 39t96.5 -39t39 -96t-39 -96t-96.5 -39t-96.5 39t-39 96zM154 0v1135h288v-1135h-288zM352 1405q0 57 39 96t96.5 39t96.5 -39t39 -96t-39 -96t-96.5 -39t-96.5 39t-39 96z" />
<glyph unicode="&#xf0;" horiz-adv-x="1318" d="M74 569q0 262 160.5 422t404.5 160q150 0 276 -92q-49 113 -133 219l-235 -74v131l145 45q-53 59 -147 136h276q45 -37 74 -70l227 72v-132l-135 -43q256 -317 256 -694q0 -319 -165 -492t-418.5 -173t-419.5 161.5t-166 423.5zM367 567q0 -164 84 -252t204.5 -88 t207.5 89.5t87 252t-86 250.5t-206.5 88t-205.5 -88t-85 -252z" />
<glyph unicode="&#xf1;" horiz-adv-x="1378" d="M154 0v1135h288v-170q109 186 353 186q195 0 317.5 -128t122.5 -355v-668h-287v627q0 133 -67.5 203.5t-184 70.5t-185.5 -70.5t-69 -203.5v-627h-288zM358 1247q41 268 250 269q63 0 139 -45.5t113 -45.5q76 0 88 88h150q-41 -268 -250 -268q-63 0 -139 46t-113 46 q-76 0 -90 -90h-148z" />
<glyph unicode="&#xf2;" horiz-adv-x="1320" d="M76 569q0 262 168 422t416.5 160t416.5 -160t168 -422t-169 -423.5t-418.5 -161.5t-415.5 161.5t-166 423.5zM369 567q0 -164 84 -252t204.5 -88t207.5 89.5t87 252t-86 250.5t-207.5 88t-205.5 -88t-84 -252zM412 1430v233l471 -246v-203z" />
<glyph unicode="&#xf3;" horiz-adv-x="1320" d="M76 569q0 262 168 422t416.5 160t416.5 -160t168 -422t-169 -423.5t-418.5 -161.5t-415.5 161.5t-166 423.5zM369 567q0 -164 84 -252t204.5 -88t207.5 89.5t87 252t-86 250.5t-207.5 88t-205.5 -88t-84 -252zM412 1214v203l471 246v-233z" />
<glyph unicode="&#xf4;" horiz-adv-x="1320" d="M76 569q0 262 168 422t416.5 160t416.5 -160t168 -422t-169 -423.5t-418.5 -161.5t-415.5 161.5t-166 423.5zM356 1219v211l306 169l303 -169v-211l-303 178zM369 567q0 -164 84 -252t204.5 -88t207.5 89.5t87 252t-86 250.5t-207.5 88t-205.5 -88t-84 -252z" />
<glyph unicode="&#xf5;" horiz-adv-x="1320" d="M76 569q0 262 168 422t416.5 160t416.5 -160t168 -422t-169 -423.5t-418.5 -161.5t-415.5 161.5t-166 423.5zM297 1247q41 269 250 269q63 0 139 -45.5t113 -45.5q76 0 88 88h149q-41 -268 -250 -268q-63 0 -139 46t-112 46q-76 0 -91 -90h-147zM369 567q0 -164 84 -252 t204.5 -88t207.5 89.5t87 252t-86 250.5t-207.5 88t-205.5 -88t-84 -252z" />
<glyph unicode="&#xf6;" horiz-adv-x="1320" d="M76 569q0 262 168 422t416.5 160t416.5 -160t168 -422t-169 -423.5t-418.5 -161.5t-415.5 161.5t-166 423.5zM336 1405q0 57 39 96t96 39t96 -39t39 -96t-39 -96t-96 -39t-96 39t-39 96zM369 567q0 -164 84 -252t204.5 -88t207.5 89.5t87 252t-86 250.5t-207.5 88 t-205.5 -88t-84 -252zM715 1405q0 57 39 96t96 39t96 -39t39 -96t-39 -96t-96 -39t-96 39t-39 96z" />
<glyph unicode="&#xf7;" horiz-adv-x="1323" d="M139 600v258h1045v-258h-1045zM496 293.5q0 68.5 48 117t116.5 48.5t116.5 -48.5t48 -117t-48 -116.5t-116.5 -48t-116.5 48t-48 116.5zM496 1164.5q0 68.5 48 116.5t116.5 48t116.5 -48t48 -116.5t-48 -116t-116.5 -47.5t-116.5 47.5t-48 116z" />
<glyph unicode="&#xf8;" horiz-adv-x="1320" d="M55 0l160 176q-137 158 -137 406.5t168 408.5t418 160q199 0 348 -104l80 88h174l-158 -172q139 -162 139 -409t-169 -408.5t-419 -161.5q-201 0 -348 106l-82 -90h-174zM371 567q0 -102 37 -180l426 465q-78 55 -186.5 55t-192.5 -88t-84 -252zM489 285 q72 -57 181.5 -57.5t196.5 89t87 250.5q0 106 -39 185z" />
<glyph unicode="&#xf9;" horiz-adv-x="1378" d="M143 469v666h287v-625q0 -133 67.5 -205t184.5 -72t185.5 72t68.5 205v625h289v-1135h-289v172q-109 -186 -354 -186q-193 0 -316 128t-123 355zM440 1430v233l471 -246v-203z" />
<glyph unicode="&#xfa;" horiz-adv-x="1378" d="M143 469v666h287v-625q0 -133 67.5 -205t184.5 -72t185.5 72t68.5 205v625h289v-1135h-289v172q-109 -186 -354 -186q-193 0 -316 128t-123 355zM440 1214v203l471 246v-233z" />
<glyph unicode="&#xfb;" horiz-adv-x="1378" d="M143 469v666h287v-625q0 -133 67.5 -205t184.5 -72t185.5 72t68.5 205v625h289v-1135h-289v172q-109 -186 -354 -186q-193 0 -316 128t-123 355zM385 1219v211l305 169l303 -169v-211l-303 178z" />
<glyph unicode="&#xfc;" horiz-adv-x="1378" d="M143 469v666h287v-625q0 -133 67.5 -205t184.5 -72t185.5 72t68.5 205v625h289v-1135h-289v172q-109 -186 -354 -186q-193 0 -316 128t-123 355zM365 1405q0 57 38.5 96t96 39t96.5 -39t39 -96t-39 -96t-96.5 -39t-96 39t-38.5 96zM743 1405q0 57 39 96t96.5 39t96.5 -39 t39 -96t-39 -96t-96.5 -39t-96.5 39t-39 96z" />
<glyph unicode="&#xfd;" horiz-adv-x="1247" d="M14 1135h324l289 -807l305 807h301l-709 -1672h-301l236 557zM377 1214v203l471 246v-233z" />
<glyph unicode="&#xfe;" d="M154 -541v2057h288v-558q121 193 354.5 193t385 -163t151.5 -420t-151.5 -420.5t-382 -163.5t-357.5 206v-731h-288zM442 567.5q0 -155.5 89.5 -245t210 -89.5t209.5 90.5t89 246t-89 243.5t-209.5 88t-210 -89t-89.5 -244.5z" />
<glyph unicode="&#xff;" horiz-adv-x="1247" d="M14 1135h324l289 -807l305 807h301l-709 -1672h-301l236 557zM299 1405q0 57 39 96t96.5 39t96 -39t38.5 -96t-38.5 -96t-96 -39t-96.5 39t-39 96zM678 1405q0 57 39 96t96 39t96 -39t39 -96t-39 -96t-96 -39t-96 39t-39 96z" />
<glyph unicode="&#x152;" horiz-adv-x="2207" d="M74 717.5q0 318.5 212 525.5t519 207q266 0 436 -201v181h825v-222h-536v-374h475v-222h-475v-391h536v-221h-825v182q-172 -197 -436 -196q-309 0 -520 206.5t-211 525zM367 718q0 -212 121.5 -340t316 -128t315.5 128t121 341t-121 340t-315.5 127t-316 -128 t-121.5 -340z" />
<glyph unicode="&#x153;" horiz-adv-x="2154" d="M74 569q0 262 168 422t428 160t422 -213q150 213 410.5 213t419.5 -154.5t159 -412.5q0 -59 -8 -111h-826q10 -111 82 -178.5t182 -67.5q147 0 222 123h311q-49 -162 -190.5 -264t-342.5 -102q-264 0 -419 213q-78 -102 -192 -157.5t-245 -55.5q-250 0 -415.5 161.5 t-165.5 423.5zM367 567q0 -164 84 -252t204.5 -88t207.5 89.5t87 252t-86 250.5t-206.5 88t-205.5 -88t-85 -252zM1247 659h535q-4 113 -81 180.5t-186.5 67.5t-181 -67.5t-86.5 -180.5z" />
<glyph unicode="&#x178;" horiz-adv-x="1316" d="M31 1430h323l305 -674l304 674h323l-483 -938v-492h-289v492zM334 1702q0 57 39 96t96 39t96 -39t39 -96t-39 -96t-96 -39t-96 39t-39 96zM713 1702q0 57 39 96t96 39t96 -39t39 -96t-39 -96t-96 -39t-96 39t-39 96z" />
<glyph unicode="&#x2c6;" horiz-adv-x="649" d="M20 1219v211l306 169l303 -169v-211l-303 178z" />
<glyph unicode="&#x2dc;" horiz-adv-x="780" d="M20 1247q41 269 250 269q63 0 139 -45.5t113 -45.5q76 0 88 88h150q-41 -268 -250 -268q-63 0 -139 46t-113 46q-76 0 -90 -90h-148z" />
<glyph unicode="&#x2000;" horiz-adv-x="1014" />
<glyph unicode="&#x2001;" horiz-adv-x="2028" />
<glyph unicode="&#x2002;" horiz-adv-x="1014" />
<glyph unicode="&#x2003;" horiz-adv-x="2028" />
<glyph unicode="&#x2004;" horiz-adv-x="676" />
<glyph unicode="&#x2005;" horiz-adv-x="507" />
<glyph unicode="&#x2006;" horiz-adv-x="338" />
<glyph unicode="&#x2007;" horiz-adv-x="338" />
<glyph unicode="&#x2008;" horiz-adv-x="253" />
<glyph unicode="&#x2009;" horiz-adv-x="405" />
<glyph unicode="&#x200a;" horiz-adv-x="112" />
<glyph unicode="&#x2010;" horiz-adv-x="1193" d="M162 610v240h870v-240h-870z" />
<glyph unicode="&#x2011;" horiz-adv-x="1193" d="M162 610v240h870v-240h-870z" />
<glyph unicode="&#x2012;" horiz-adv-x="1193" d="M162 610v240h870v-240h-870z" />
<glyph unicode="&#x2013;" horiz-adv-x="1437" d="M162 610v240h1114v-240h-1114z" />
<glyph unicode="&#x2014;" horiz-adv-x="1898" d="M162 610v240h1575v-240h-1575z" />
<glyph unicode="&#x2018;" horiz-adv-x="411" d="M69.5 1408.5q0.5 121.5 65 194t191.5 72.5v-114q-102 0 -103 -125v-39h119v-223h-238q-35 113 -34.5 234.5z" />
<glyph unicode="&#x2019;" horiz-adv-x="411" d="M70 1452v223h237q35 -113 35 -234.5t-64.5 -194t-191.5 -72.5v114q102 0 102 125v39h-118z" />
<glyph unicode="&#x201a;" horiz-adv-x="450" d="M68 -80v266h251q76 -211 33 -364q-23 -76 -87 -121t-167 -45v115q53 0 78 24.5t25 85.5v39h-133z" />
<glyph unicode="&#x201c;" horiz-adv-x="757" d="M69.5 1408.5q0.5 121.5 65 194t191.5 72.5v-114q-102 0 -103 -125v-39h119v-223h-238q-35 113 -34.5 234.5zM416 1408.5q0 121.5 64.5 194t191.5 72.5v-114q-102 0 -103 -125v-39h119v-223h-237q-35 113 -35 234.5z" />
<glyph unicode="&#x201d;" horiz-adv-x="757" d="M70 1452v223h237q35 -113 35 -234.5t-64.5 -194t-191.5 -72.5v114q102 0 102 125v39h-118zM416 1452v223h237q35 -113 35 -234.5t-64.5 -194t-191.5 -72.5v114q102 0 103 125v39h-119z" />
<glyph unicode="&#x201e;" horiz-adv-x="450" d="M68 -80v266h251q76 -211 33 -364q-23 -76 -87 -121t-167 -45v115q53 0 78 24.5t25 85.5v39h-133z" />
<glyph unicode="&#x2022;" horiz-adv-x="983" d="M205 683q0 120 83 204t203.5 84t203.5 -84t83 -205t-83 -203t-203.5 -82t-203.5 83t-83 203z" />
<glyph unicode="&#x2026;" horiz-adv-x="1390" d="M88 163.5q0 69.5 47 117t115.5 47.5t117 -47.5t48.5 -117t-48.5 -116.5t-117 -47t-115.5 47t-47 116.5zM532 163.5q0 69.5 47.5 117t116 47.5t116.5 -47.5t48 -117t-48 -116.5t-116.5 -47t-116 47t-47.5 116.5zM977 163.5q0 69.5 47 117t115.5 47.5t117 -47.5t48.5 -117 t-48.5 -116.5t-117 -47t-115.5 47t-47 116.5z" />
<glyph unicode="&#x202f;" horiz-adv-x="405" />
<glyph unicode="&#x2039;" horiz-adv-x="645" d="M92 604l182 359h269l-187 -359l187 -358h-269z" />
<glyph unicode="&#x203a;" horiz-adv-x="645" d="M102 246l189 358l-189 359h271l180 -359l-180 -358h-271z" />
<glyph unicode="&#x205f;" horiz-adv-x="507" />
<glyph unicode="&#x20ac;" horiz-adv-x="1650" d="M47 459v184h141q-4 49 -4 74.5t4 75.5h-141v188h182q78 213 264.5 341t421 128t415.5 -119t259 -334h-346q-96 188 -338.5 188.5t-363.5 -204.5h374v-188h-434q-4 -49 -4 -75t4 -75h434v-184h-374q55 -98 152.5 -153.5t221.5 -55.5q229 0 328 188h346 q-78 -215 -259 -332.5t-416.5 -117.5t-423 128t-263.5 343h-180z" />
<glyph unicode="&#x2122;" horiz-adv-x="1726" d="M55 1274v168h533v-168h-162l4 -551h-221l6 551h-160zM700 723v719h299l160 -455l172 455h281v-719h-197l-4 479l-188 -479h-146l-186 496v-496h-191z" />
<glyph unicode="&#x25fc;" horiz-adv-x="1136" d="M0 0v1137h1137v-1137h-1137z" />
</font>
</defs>
</svg>
